Guten Abend! Gast

Your first Source for 4K-Releases

Solo.A.Star.Wars.Story.2018.Blu-ray.2160p.UHD.HDR10.HEVC.TrueHD.7.1-CYBER

Solo - A Star Wars Story (2018) (Complete) Solo.A.Star.Wars.Story.2018.Blu-ray.2160p.UHD.HDR10.HEVC.TrueHD.7.1-CYBER

Eingetragen am 22.09.2018 um 12:47 Uhr

  • Größe 56,90 GB
  • Codec HEVC
  • Source Ultra HD Blu-ray
  • Sprache English TrueHD Atmos 7.1, Deutsch / French / Italian / Japanese Dolby Digital Plus 7.1
  • Auflösung 3840x2160
  • Laufzeit 2 Stunden 14 Minuten
  • Bitrate 43,10 Mb/s

Im Mittelpunkt steht der junge Schmuggler Han Solo (Alden Ehrenreich), dessen erstes großes Abenteuer gezeigt wird. Solo ist von der Flugakademie geworfen worden, weil er seinen eigenen Kopf hat - eine Eigenschaft, die er auch anschließend nicht verliert. Sein Mentor, der zwielichtige Gangster Tobias Beckett (Woody Harrelson), schickt ihn auf eine wichtige Mission. Begleitet wird Solo unter anderem von seinem neuen, treuen Freund Chewbacca (Joonas Suotamo), von Qi'Ra (Emilia Clarke), die ihn kennt wie kein anderer - und von Lando Calrissian (Donald Glover).

Trailer

Mediainfo / NFO

DISC INFO:

Disc Title:     SOLO_A_STAR_WARS_STORY
Disc Size:      61.093.252.611 bytes
Protection:     AACS2
Extras:         Ultra HD, BD-Java
BDInfo:         0.7.3.65534

PLAYLIST REPORT:

Name:                   00801.MPLS
Length:                 2:14:45.744 (h:m:s.ms)
Size:                   57.721.626.432 bytes
Total Bitrate:          57,11 Mbps

VIDEO:

Codec                   Bitrate             Description     
-----                   -------             -----------     
HEVC Video              43148 kbps          2160p / 23,976 fps / 16:9 / Main 10 @ Level 5.1 @ High / 4:2:0 / 10 bits / HDR10 / Limited Range / BT.2020 / PQ / BT.2020 non-constant / Mastering display color primaries: Display P3 / Mastering display luminance: min: 0.0001 cd/m2, max: 1000 cd/m2

AUDIO:

Codec                           Language        Bitrate         Description     
-----                           --------        -------         -----------     
Dolby TrueHD/Atmos Audio        English         5620 kbps       7.1 / 48 kHz / 4980 kbps / 24-bit (AC3 Embedded: 5.1 / 48 kHz / 640 kbps)
Dolby Digital Audio             English         320 kbps        2.0 / 48 kHz / 320 kbps / DN -4dB
Dolby Digital Plus Audio        German          1024 kbps       7.1 / 48 kHz / 1024 kbps (DD+ Embedded: 5.1 / 48 kHz / 576 kbps)
Dolby Digital Plus Audio        French          1024 kbps       7.1 / 48 kHz / 1024 kbps (DD+ Embedded: 5.1 / 48 kHz / 576 kbps)
Dolby Digital Plus Audio        Italian         1024 kbps       7.1 / 48 kHz / 1024 kbps (DD+ Embedded: 5.1 / 48 kHz / 576 kbps)
Dolby Digital Plus Audio        Japanese        1024 kbps       7.1 / 48 kHz / 1024 kbps (DD+ Embedded: 5.1 / 48 kHz / 576 kbps)

SUBTITLES:

Codec                           Language        Bitrate         Description     
-----                           --------        -------         -----------     
Presentation Graphics           English         39,107 kbps                     
Presentation Graphics           German          32,534 kbps                     
Presentation Graphics           French          27,703 kbps                     
Presentation Graphics           Italian         32,538 kbps                     
Presentation Graphics           Japanese        24,852 kbps                     
Presentation Graphics           Norwegian       30,451 kbps                     
Presentation Graphics           Swedish         27,263 kbps                     
Presentation Graphics           English         0,244 kbps                      
Presentation Graphics           German          0,293 kbps                      
Presentation Graphics           French          0,237 kbps                      
Presentation Graphics           Italian         0,234 kbps                      
Presentation Graphics           Japanese        0,229 kbps                      

FILES:

Name            Time In         Length          Size            Total Bitrate   
----            -------         ------          ----            -------------   
00053.M2TS      0:00:00.000     0:01:32.342     421.099.008     36.449          
00057.M2TS      0:01:32.342     0:12:41.677     5.554.146.816   58.330          
00059.M2TS      0:14:14.019     0:00:17.726     200.934.144     90.259          
00073.M2TS      0:14:31.745     2:00:13.998     51.545.446.464  57.161

Passwort: NIMA4K
Hoster: Share-Online, Rapidgator

Kommentare (0)

Bitte nutze die Kommentierfunktion ausschließlich für releasespezifische Kommentare! Alles weitere kann gern in der Shoutbox oder im Forum diskutiert werden.

Kommentar schreiben

Du bist nicht eingeloggt! Bitte registriere Dich hier, um einen Kommentar zu schreiben. Falls Du bereits einen Account hast, kannst du dich hier einloggen.
Noch keine Kommentare vorhanden. Schreibe den ersten Kommentar!