Guten Abend! Gast

Your first Source for 4K-Releases

Sherlock.Gnomes.2018.German.DD51.2160p.WebUHD.HDR.x265-Skylake

Sherlock Gnomes (2018) Sherlock.Gnomes.2018.German.DD51.2160p.WebUHD.HDR.x265-Skylake

Eingetragen am 26.06.2018 um 08:34 Uhr

  • Größe 8,27 GB
  • Codec HEVC x265
  • Source WebRip
  • Sprache Deutsch Dolby Digital 5.1
  • Auflösung 3840x1600
  • Laufzeit 1 Stunde 26 Minuten
  • Bitrate 13,00 Mb/s

Der Streit zwischen den Gnomen-Familien Zinnoberrot und Blaublut ist beigelegt und endlich konnte Gnomeo (Stimme im Original: James McAvoy) seine geliebte Julia (Emily Blunt) heiraten. Doch das gemeinsame Glück der Gartenzwerg-Clans in ihrer neuen Heimat London ist nur von kurzer Dauer: Denn plötzlich verschwinden auf einmal überall in der Stadt Gnome, was die heile Vorstadtwelt schwer erschüttert. Gnomeo und Julia wollen helfen, geraten mit ihren eigenen Ermittlungen jedoch bald in eine Sackgasse. Doch zum Glück nimmt sich der berühmte Gartenzwerg-Detektiv Sherlock Gnomes (Johnny Depp) des Falles an. Gemeinsam mit dem frisch verheirateten Gnomen-Paar und seinem Partner Dr. Watson (Chiwetel Ejiofor) macht er sich daran, die mysteriösen Ereignisse aufzuklären und die verschwundenen Wichte zu finden…

Trailer

Mediainfo / NFO

General
Unique ID                                : 240297554592770863291278728621465578872 (0xB4C7A02703E2CFB5BB9E44945D3CAD78)
Complete name                            : Sherlock.Gnomes.2018.German.DD51.2160p.WebUHD.HDR.x265-Skylake.mkv
Format                                   : Matroska
Format version                           : Version 4 / Version 2
File size                                : 8.27 GiB
Duration                                 : 1 h 26 min
Overall bit rate                         : 13.7 Mb/s
Encoded date                             : UTC 2018-06-06 21:18:44
Writing application                      : mkvmerge v14.0.0 ('Flow') 64bit
Writing library                          : libebml v1.3.4 + libmatroska v1.4.5

Video
ID                                       : 1
Format                                   : HEVC
Format/Info                              : High Efficiency Video Coding
Format profile                           : Main [email protected]@High
Codec ID                                 : V_MPEGH/ISO/HEVC
Duration                                 : 1 h 26 min
Bit rate                                 : 13.0 Mb/s
Width                                    : 3 840 pixels
Height                                   : 1 600 pixels
Display aspect ratio                     : 2.40:1
Frame rate mode                          : Constant
Frame rate                               : 23.976 (24000/1001) FPS
Color space                              : YUV
Chroma subsampling                       : 4:2:0
Bit depth                                : 10 bits
Bits/(Pixel*Frame)                       : 0.089
Stream size                              : 7.88 GiB (95%)
Default                                  : Yes
Forced                                   : No
Color range                              : Limited
Color primaries                          : BT.2020
Transfer characteristics                 : PQ
Matrix coefficients                      : BT.2020 non-constant
Mastering display color primaries        : R: x=0.708000 y=0.291980, G: x=0.170000 y=0.797000, B: x=0.131000 y=0.046000, White point: x=0.312680 y=0.329000
Mastering display luminance              : min: 0.0050 cd/m2, max: 3999.0000 cd/m2
Maximum Content Light Level              : 4000 cd/m2
Maximum Frame-Average Light Level        : 1000 cd/m2

Audio
ID                                       : 2
Format                                   : AC-3
Format/Info                              : Audio Coding 3
Format settings, Endianness              : Big
Codec ID                                 : A_AC3
Duration                                 : 1 h 26 min
Bit rate mode                            : Constant
Bit rate                                 : 640 kb/s
Channel(s)                               : 6 channels
Channel positions                        : Front: L C R, Side: L R, LFE
Sampling rate                            : 48.0 kHz
Frame rate                               : 31.250 FPS (1536 SPF)
Bit depth                                : 16 bits
Compression mode                         : Lossy
Delay relative to video                  : 732 ms
Stream size                              : 396 MiB (5%)
Language                                 : German
Service kind                             : Complete Main
Default                                  : Yes
Forced                                   : No


Passwort: NIMA4K
Hoster: Share-Online, Rapidgator

Kommentare (0)

Bitte nutze die Kommentierfunktion ausschließlich für releasespezifische Kommentare! Alles weitere kann gern in der Shoutbox oder im Forum diskutiert werden.

Kommentar schreiben

Du bist nicht eingeloggt! Bitte registriere Dich hier, um einen Kommentar zu schreiben. Falls Du bereits einen Account hast, kannst du dich hier einloggen.
Noch keine Kommentare vorhanden. Schreibe den ersten Kommentar!