Guten Abend! Gast

Your first Source for 4K-Releases

Der.Sex.Pakt.2018.German.DD51.2160p.WebUHD.HDR.x265-Skylake

Der Sex Pakt (2018) Der.Sex.Pakt.2018.German.DD51.2160p.WebUHD.HDR.x265-Skylake

Eingetragen am 27.06.2018 um 16:57 Uhr

  • Größe 10,30 GB
  • Codec HEVC x265
  • Source WebRip
  • Sprache Deutsch Dolby Digital 5.1
  • Auflösung 3840x1600
  • Laufzeit 1 Stunde 41 Minuten
  • Bitrate 13,80 Mb/s

Drei Freundinen schießen einen Pakt, das "erste Mal" auf dem Abschlussball. Zum Pech der Mädchen haben ihre überfürsorglichen Eltern Wind davon bekommen und starten eine unbeholfene Nacht und Nebel Aktion um ihre Mädchen davon abzuhalten.

Trailer

Mediainfo / NFO

General
Unique ID                                : 201022013298322400525069017585595049490 (0x973B6E7613ED32CDBFAC3BD6D4B9E612)
Complete name                            : Der.Sex.Pakt.2018.German.DD51.2160p.WebUHD.HDR.x265-Skylake.mkv
Format                                   : Matroska
Format version                           : Version 4 / Version 2
File size                                : 10.3 GiB
Duration                                 : 1 h 41 min
Overall bit rate                         : 14.4 Mb/s
Encoded date                             : UTC 2018-06-26 20:09:46
Writing application                      : mkvmerge v14.0.0 ('Flow') 64bit
Writing library                          : libebml v1.3.4 + libmatroska v1.4.5

Video
ID                                       : 1
Format                                   : HEVC
Format/Info                              : High Efficiency Video Coding
Format profile                           : Main [email protected]@High
Codec ID                                 : V_MPEGH/ISO/HEVC
Duration                                 : 1 h 41 min
Bit rate                                 : 13.8 Mb/s
Width                                    : 3 840 pixels
Height                                   : 1 600 pixels
Display aspect ratio                     : 2.40:1
Frame rate mode                          : Constant
Frame rate                               : 23.976 (23976/1000) FPS
Original frame rate                      : 23.976 (24000/1001) FPS
Color space                              : YUV
Chroma subsampling                       : 4:2:0
Bit depth                                : 10 bits
Bits/(Pixel*Frame)                       : 0.093
Stream size                              : 9.80 GiB (96%)
Default                                  : Yes
Forced                                   : No
Color range                              : Limited
Color primaries                          : BT.2020
Transfer characteristics                 : PQ
Matrix coefficients                      : BT.2020 non-constant
Mastering display color primaries        : R: x=0.680000 y=0.320000, G: x=0.265000 y=0.690000, B: x=0.150000 y=0.060000, White point: x=0.312680 y=0.329000
Mastering display luminance              : min: 0.0050 cd/m2, max: 1000.0000 cd/m2
Maximum Content Light Level              : 979 cd/m2
Maximum Frame-Average Light Level        : 207 cd/m2

Audio
ID                                       : 2
Format                                   : AC-3
Format/Info                              : Audio Coding 3
Format settings, Endianness              : Big
Codec ID                                 : A_AC3
Duration                                 : 1 h 41 min
Bit rate mode                            : Constant
Bit rate                                 : 640 kb/s
Channel(s)                               : 6 channels
Channel positions                        : Front: L C R, Side: L R, LFE
Sampling rate                            : 48.0 kHz
Frame rate                               : 31.250 FPS (1536 SPF)
Bit depth                                : 16 bits
Compression mode                         : Lossy
Delay relative to video                  : 306 ms
Stream size                              : 466 MiB (4%)
Language                                 : German
Service kind                             : Complete Main
Default                                  : Yes
Forced                                   : No

Passwort: NIMA4K
Hoster: Share-Online, Rapidgator

Kommentare (1)

Bitte nutze die Kommentierfunktion ausschließlich für releasespezifische Kommentare! Alles weitere kann gern in der Shoutbox oder im Forum diskutiert werden.

Kommentar schreiben

Du bist nicht eingeloggt! Bitte registriere Dich hier, um einen Kommentar zu schreiben. Falls Du bereits einen Account hast, kannst du dich hier einloggen.

xsystemx 27.06.2018 - 17:09 Uhr

Hi.

Läuft per USB Festplatte an LG TV.


Danke NIMA4K. :D

Mfg...