Guten Abend! Gast

Your first Source for 4K-Releases

Pacific.Rim.Uprising.2018.German.DD51.2160p.WebUHD.HDR.x265-Skylake

Pacific Rim 2: Uprising (2018) Pacific.Rim.Uprising.2018.German.DD51.2160p.WebUHD.HDR.x265-Skylake

Eingetragen am 26.06.2018 um 08:48 Uhr

  • Größe 15,80 GB
  • Codec HEVC x265
  • Source WebRip
  • Sprache Deutsch Dolby Digital 5.1
  • Auflösung 3840x1584
  • Laufzeit 1 Stunde 51 Minuten
  • Bitrate 19,70 Mb/s

Vor einiger Zeit sah es noch danach aus, als würde Jake Pentecost eine glorreiche Zukunft als Jaeger-Pilot beschieden sein, der mit seinen Fähigkeiten dabei hilft, die Menschheit vor den monströsen Kaiju zu beschützen. Damit hätte er in die Fußstapfen seines Vaters treten können, der einst den Widerstand gegen die Monster aus einer anderen Welt anführte. Aber weil dieser in seine Ziehtochter Mako mehr Hoffnungen legte und Jake dessen Erwartungen nie wirklich zu erfüllen vermochte, verabschiedete er sich vom Pilotentraining und landete in der Unterwelt, wo er sich zum Dieb und Schwarzmarkthändler mauserte. Doch die Welt braucht ihn: Eine nie zuvor gesehene Bedrohung schickt sich dazu an, Städte in Schutt und Asche zu legen und Mako führt eine neue Generation junger Jaeger-Piloten an, zu der sich auch Jake gesellen soll.

Trailer

Mediainfo / NFO

General
Unique ID                                : 255082001554716226394070774994215462172 (0xBFE701AA6EC2869E85323F243A59651C)
Complete name                            : Pacific.Rim.Uprising.2018.German.DD51.2160p.WebUHD.HDR.x265-Skylake.mkv
Format                                   : Matroska
Format version                           : Version 4 / Version 2
File size                                : 15.8 GiB
Duration                                 : 1 h 51 min
Overall bit rate                         : 20.3 Mb/s
Encoded date                             : UTC 2018-06-21 20:44:46
Writing application                      : mkvmerge v14.0.0 ('Flow') 64bit
Writing library                          : libebml v1.3.4 + libmatroska v1.4.5

Video
ID                                       : 1
Format                                   : HEVC
Format/Info                              : High Efficiency Video Coding
Format profile                           : Main [email protected]@High
Codec ID                                 : V_MPEGH/ISO/HEVC
Duration                                 : 1 h 51 min
Bit rate                                 : 19.7 Mb/s
Width                                    : 3 840 pixels
Height                                   : 1 584 pixels
Display aspect ratio                     : 2.40:1
Frame rate mode                          : Constant
Frame rate                               : 23.976 (23976/1000) FPS
Original frame rate                      : 23.976 (24000/1001) FPS
Color space                              : YUV
Chroma subsampling                       : 4:2:0
Bit depth                                : 10 bits
Bits/(Pixel*Frame)                       : 0.135
Stream size                              : 15.3 GiB (97%)
Default                                  : Yes
Forced                                   : No
Color range                              : Limited
Color primaries                          : BT.2020
Transfer characteristics                 : PQ
Matrix coefficients                      : BT.2020 non-constant
Mastering display color primaries        : R: x=0.708000 y=0.291980, G: x=0.170000 y=0.797000, B: x=0.131000 y=0.046000, White point: x=0.312680 y=0.329000
Mastering display luminance              : min: 0.0050 cd/m2, max: 3999.0000 cd/m2
Maximum Content Light Level              : 4000 cd/m2
Maximum Frame-Average Light Level        : 1000 cd/m2

Audio
ID                                       : 2
Format                                   : AC-3
Format/Info                              : Audio Coding 3
Format settings, Endianness              : Big
Codec ID                                 : A_AC3
Duration                                 : 1 h 51 min
Bit rate mode                            : Constant
Bit rate                                 : 640 kb/s
Channel(s)                               : 6 channels
Channel positions                        : Front: L C R, Side: L R, LFE
Sampling rate                            : 48.0 kHz
Frame rate                               : 31.250 FPS (1536 SPF)
Bit depth                                : 16 bits
Compression mode                         : Lossy
Delay relative to video                  : 306 ms
Stream size                              : 510 MiB (3%)
Language                                 : German
Service kind                             : Complete Main
Default                                  : Yes
Forced                                   : No

Menu
00:00:00.000                             : en:00:00:00.000
00:06:54.873                             : en:00:06:54.873
00:13:05.368                             : en:00:13:05.368
00:15:51.075                             : en:00:15:51.075
00:20:36.360                             : en:00:20:36.360
00:24:49.697                             : en:00:24:49.697
00:31:08.241                             : en:00:31:08.241
00:37:56.065                             : en:00:37:56.065
00:43:37.949                             : en:00:43:37.949
00:49:01.939                             : en:00:49:01.939
00:53:40.926                             : en:00:53:40.926
00:58:12.030                             : en:00:58:12.030
01:04:45.006                             : en:01:04:45.006
01:09:25.536                             : en:01:09:25.536
01:14:36.722                             : en:01:14:36.722
01:22:53.427                             : en:01:22:53.427
01:29:02.546                             : en:01:29:02.546
01:33:10.585                             : en:01:33:10.585
01:38:07.381                             : en:01:38:07.381
01:40:55.049                             : en:01:40:55.049


Passwort: NIMA4K
Hoster: Share-Online, Rapidgator

Kommentare (4)

Bitte nutze die Kommentierfunktion ausschließlich für releasespezifische Kommentare! Alles weitere kann gern in der Shoutbox oder im Forum diskutiert werden.

Kommentar schreiben

Du bist nicht eingeloggt! Bitte registriere Dich hier, um einen Kommentar zu schreiben. Falls Du bereits einen Account hast, kannst du dich hier einloggen.

Nomade 27.06.2018 - 22:03 Uhr

We not able to answer that because there is no UHD BluRay at the moment. The quality of this release here is adequate for me.
Decide for yourself, 16 gb are not much to even look at it.

Trainst0pp3r 27.06.2018 - 13:21 Uhr

thanks for your reply. In your opinion what is the quality compared with the true 4K bluray rip or iso?

Gerrit 27.06.2018 - 01:59 Uhr

It's a web rip. Netflix, Amazon and others only stream at that bitrate in UHD. Do you think they stream 50Mbps+ Remuxes or what?

Trainst0pp3r 27.06.2018 - 00:00 Uhr

how can a 4K release of a new movie can be ONLY 16 GB and 19.70 MB/s?