So spät noch wach? Gast

Your first Source for 4K-Releases

Deathgrip.2017.2160p.WEB-DL.AAC2.0.x264-ULTRAHDCLUB

Deathgrip (2017) Deathgrip.2017.2160p.WEB-DL.AAC2.0.x264-ULTRAHDCLUB

Eingetragen am 13.08.2017 um 22:47 Uhr

  • Größe 8,29 GB
  • Codec AVC x264
  • Source Web-DL
  • Sprache English AAC 2.0
  • Auflösung 3840x2160
  • Laufzeit 53 Minuten
  • Bitrate 22,00 Mb/s

DEATHGRIP puts the defining style of Brendan Fairclough with the progressive filmmaking of Clay Porter, slamming them together into an in-your-face, non-stop onslaught of race-pace action set against Planet Earth scenery. It pushes mountain biking to a new level of intensity and documents the sport at a pulse faster than ever before. Starring Brendan Fairclough and featuring Brandon Semenuk, Josh Bryceland, Sam Reynolds, Ryan Howard, Nico Vink, Andrew Neethling, Kyle Jameson and Olly Wilkins. The future is now. #DEATHGRIPMOVIE

Trailer

Mediainfo / NFO

General
Complete name                            : Deathgrip.2017.2160p.WEB-DL.AAC2.0.x264-ULTRAHDCLUB.mp4
Format                                   : MPEG-4
Format profile                           : Base Media / Version 2
Codec ID                                 : mp42 (mp42/mp41/isom/avc1)
File size                                : 8.29 GiB
Duration                                 : 53 min 27 s
Overall bit rate mode                    : Variable
Overall bit rate                         : 22.2 Mb/s
Encoded date                             : UTC 2017-06-02 20:06:25
Tagged date                              : UTC 2017-06-02 20:06:25

Video
ID                                       : 1
Format                                   : AVC
Format/Info                              : Advanced Video Codec
Format profile                           : [email protected]
Format settings, CABAC                   : Yes
Format settings, RefFrames               : 5 frames
Codec ID                                 : avc1
Codec ID/Info                            : Advanced Video Coding
Duration                                 : 53 min 27 s
Bit rate                                 : 22.0 Mb/s
Width                                    : 3 840 pixels
Height                                   : 2 160 pixels
Display aspect ratio                     : 16:9
Frame rate mode                          : Constant
Frame rate                               : 23.976 (24000/1001) FPS
Color space                              : YUV
Chroma subsampling                       : 4:2:0
Bit depth                                : 8 bits
Scan type                                : Progressive
Bits/(Pixel*Frame)                       : 0.111
Stream size                              : 8.19 GiB (99%)
Writing library                          : x264 core 150 r10 df79067
Encoding settings                        : cabac=1 / ref=5 / deblock=1:0:0 / analyse=0x3:0x113 / me=hex / subme=8 / psy=1 / psy_rd=1.00:0.00 / mixed_ref=1 / me_range=16 / chroma_me=1 / trellis=2 / 8x8dct=1 / cqm=0 / deadzone=21,11 / fast_pskip=1 / chroma_qp_offset=-2 / threads=48 / lookahead_threads=8 / sliced_threads=0 / nr=0 / decimate=1 / interlaced=0 / bluray_compat=0 / stitchable=1 / constrained_intra=0 / bframes=3 / b_pyramid=2 / b_adapt=1 / b_bias=0 / direct=3 / weightb=1 / open_gop=0 / weightp=2 / keyint=infinite / keyint_min=23 / scenecut=40 / intra_refresh=0 / rc_lookahead=50 / rc=2pass / mbtree=1 / bitrate=22000 / ratetol=1.0 / qcomp=0.60 / qpmin=5 / qpmax=69 / qpstep=4 / cplxblur=20.0 / qblur=0.5 / vbv_maxrate=24200 / vbv_bufsize=66000 / nal_hrd=none / filler=0 / ip_ratio=1.40 / aq=1:1.00
Encoded date                             : UTC 2017-06-02 20:06:25
Tagged date                              : UTC 2017-06-02 20:06:25
Color range                              : Limited
Color primaries                          : BT.709
Transfer characteristics                 : BT.709
Matrix coefficients                      : BT.709

Audio
ID                                       : 2
Format                                   : AAC
Format/Info                              : Advanced Audio Codec
Format profile                           : LC
Codec ID                                 : 40
Duration                                 : 53 min 27 s
Bit rate mode                            : Variable
Bit rate                                 : 256 kb/s
Channel(s)                               : 2 channels
Channel positions                        : Front: L R
Sampling rate                            : 48.0 kHz
Frame rate                               : 46.875 FPS (1024 SPF)
Compression mode                         : Lossy
Stream size                              : 97.9 MiB (1%)
Encoded date                             : UTC 2017-06-02 20:06:25
Tagged date                              : UTC 2017-06-02 20:06:25


Passwort: NIMA4K
Hoster: Share-Online, Rapidgator

Kommentare (0)

Bitte nutze die Kommentierfunktion ausschließlich für releasespezifische Kommentare! Alles weitere kann gern in der Shoutbox oder im Forum diskutiert werden.

Kommentar schreiben

Du bist nicht eingeloggt! Bitte registriere Dich hier, um einen Kommentar zu schreiben. Falls Du bereits einen Account hast, kannst du dich hier einloggen.
Noch keine Kommentare vorhanden. Schreibe den ersten Kommentar!