Grüß dich! Gast

Your first Source for 4K-Releases

Muse.Live.At.Rome.Olympic.Stadium.2013.2160p.UHDTV.DD5.1.HEVC-BtttS

Muse: Live At Rome Olympic Stadium (2013) Muse.Live.At.Rome.Olympic.Stadium.2013.2160p.UHDTV.DD5.1.HEVC-BtttS

Eingetragen am 08.06.2018 um 01:37 Uhr

  • Größe 25,05 GB
  • Codec HEVC
  • Source UHDTV
  • Sprache English DTS-HD MA 5.1, English Flac 2.0, Korean Dolby Digital 5.1
  • Auflösung 3840x2160
  • Laufzeit 1 Stunde 27 Minuten
  • Bitrate 29,50 Mb/s

„Live at Rome Olympic Stadium“ ist ein Live-Album und Video der englischen Rockband Muse. Der Auftritt war im Olympiastadion in Rom am 6. Juli 2013 vor einem Publikum von über 60.000 Menschen. Das Konzert war ein Teil der Unsustainable Tour, welche im Sommer 2013 stattfand.

Mediainfo / NFO

General
Unique ID                                : 192966964937144498098360757942282543306 (0x912C15EA3585CCA68079058DC72EE0CA)
Complete name                            : Muse.Live.At.Rome.Olympic.Stadium.2013.2160p.UHDTV.DD5.1.HEVC-BtttS.mkv
Format                                   : Matroska
Format version                           : Version 4 / Version 2
File size                                : 25.1 GiB
Duration                                 : 1 h 27 min
Overall bit rate mode                    : Variable
Overall bit rate                         : 41.1 Mb/s
Encoded date                             : UTC 2016-02-13 15:22:51
Writing application                      : mkvmerge v8.8.0 ('Wind at my back') 64bit
Writing library                          : libebml v1.3.3 + libmatroska v1.4.4

Video
ID                                       : 1
Format                                   : HEVC
Format/Info                              : High Efficiency Video Coding
Format profile                           : Main [email protected]@Main
Codec ID                                 : V_MPEGH/ISO/HEVC
Duration                                 : 1 h 27 min
Bit rate                                 : 29.5 Mb/s
Width                                    : 3 840 pixels
Height                                   : 2 160 pixels
Display aspect ratio                     : 16:9
Frame rate mode                          : Constant
Frame rate                               : 59.940 (59940/1000) FPS
Original frame rate                      : 60.000 FPS
Color space                              : YUV
Chroma subsampling                       : 4:2:0
Bit depth                                : 10 bits
Bits/(Pixel*Frame)                       : 0.059
Stream size                              : 18.0 GiB (72%)
Title                                    : Muse.Live.At.Rome.Olympic.Stadium.2013.2160p.UHDTV.DD5.1.HEVC-BtttS
Writing library                          : ATEME Titan KFE 3.6.2 (4.6.1.9)
Default                                  : Yes
Forced                                   : No

Audio #1
ID                                       : 2
Format                                   : DTS
Format/Info                              : Digital Theater Systems
Format profile                           : MA / 96/24 / Core
Mode                                     : 16
Format settings, Endianness              : Big
Codec ID                                 : A_DTS
Duration                                 : 1 h 27 min
Bit rate mode                            : Variable / Constant / Constant
Bit rate                                 : 8 026 kb/s / 1 509 kb/s / 1 509 kb/s
Channel(s)                               : 6 channels
Channel positions                        : Front: L C R, Side: L R, LFE
Sampling rate                            : 96.0 kHz / 96.0 kHz / 48.0 kHz
Frame rate                               : 93.750 FPS (512 SPF)
Bit depth                                : 24 bits
Compression mode                         : Lossless / Lossy / Lossy
Stream size                              : 4.89 GiB (20%)
Title                                    : DTS-HD MA 5.1 24/96 from Blu-ray
Language                                 : English
Default                                  : Yes
Forced                                   : No

Audio #2
ID                                       : 3
Format                                   : FLAC
Format/Info                              : Free Lossless Audio Codec
Codec ID                                 : A_FLAC
Duration                                 : 1 h 27 min
Bit rate mode                            : Variable
Bit rate                                 : 3 141 kb/s
Channel(s)                               : 2 channels
Channel positions                        : Front: L R
Sampling rate                            : 96.0 kHz
Frame rate                               : 83.333 FPS (1152 SPF)
Bit depth                                : 24 bits
Stream size                              : 1.92 GiB (8%)
Title                                    : PCM stereo 24/96 from Blu-ray
Writing library                          : libFLAC 1.0.25 (UTC 2007-09-17)
Language                                 : English
Default                                  : No
Forced                                   : No

Audio #3
ID                                       : 4
Format                                   : AC-3
Format/Info                              : Audio Coding 3
Format settings, Endianness              : Big
Codec ID                                 : A_AC3
Duration                                 : 1 h 27 min
Bit rate mode                            : Constant
Bit rate                                 : 384 kb/s
Channel(s)                               : 6 channels
Channel positions                        : Front: L C R, Side: L R, LFE
Sampling rate                            : 48.0 kHz
Frame rate                               : 31.250 FPS (1536 SPF)
Bit depth                                : 16 bits
Compression mode                         : Lossy
Stream size                              : 240 MiB (1%)
Language                                 : Korean
Service kind                             : Complete Main
Default                                  : No
Forced                                   : No

Passwort: NIMA4K
Hoster: Share-Online, Rapidgator

Kommentare (0)

Bitte nutze die Kommentierfunktion ausschließlich für releasespezifische Kommentare! Alles weitere kann gern in der Shoutbox oder im Forum diskutiert werden.

Kommentar schreiben

Du bist nicht eingeloggt! Bitte registriere Dich hier, um einen Kommentar zu schreiben. Falls Du bereits einen Account hast, kannst du dich hier einloggen.
Noch keine Kommentare vorhanden. Schreibe den ersten Kommentar!