So spät noch wach? Gast

Your first Source for 4K-Releases

Planet.Erde.II.S01.DTS.2160p.HDR.UltraHD.BluRay.x265-mb89

Planet Erde II: Eine Erde - viele Welten (2016) (Encode) Planet.Erde.II.S01.DTS.2160p.HDR.UltraHD.BluRay.x265-mb89

Eingetragen am 01.01.2018 um 14:19 Uhr

  • Größe Pro Folge ca. 6,00 GB
  • Codec HEVC x265
  • Source Ultra HD Blu-ray
  • Sprache Deutsch DTS 5.1, English Dolby Digital 5.1
  • Auflösung 3840x2160
  • Laufzeit Pro Folge ca. 55 Min
  • Bitrate 14,00 Mb/s

Episoden einzeln ladbar

Planet Erde II nimmt uns näher mit heran als jemals zuvor, fängt überraschende Verhaltensweisen und außergewöhnliche Orte ein, die vor zehn Jahren unerreichbar gewesen sind. Zusätzlich widmet sich die Serie einem neuen Lebensraum: Zum ersten Mal legt eine richtungsweisende Naturdokumentation ihr Augenmerk in einer Episode auf die Großstadt und die verblüffenden Überlebensstrategien von Tieren im Großstadtdschungel.

Enthaltene Episoden:

Episode 01: Inseln
Episode 02: Berge
Episode 03: Dschungel
Episode 04: Wüsten
Episode 05: Grasland
Episode 06: Städte

Trailer

Mediainfo / NFO

General
Unique ID                                : 183546571780239240773157600445498037138 (0x8A15C8AC3C828EFA9A64136B404E9392)
Complete name                            : Planet.Erde.II.S01E01.Inseln.DTS.2160p.HDR.UltraHD.BluRay.x265-mb89.mkv
Format                                   : Matroska
Format version                           : Version 4 / Version 2
File size                                : 5.98 GiB
Duration                                 : 53 min 6 s
Overall bit rate                         : 16.1 Mb/s
Movie name                               : PLANET ERDE II: eine erde - viele welten - Disc 1 - UHD
Encoded date                             : UTC 2017-12-23 23:40:04
Writing application                      : mkvmerge v17.0.0 ('Be Ur Friend') 64-bit
Writing library                          : libebml v1.3.5 + libmatroska v1.4.8
Writing frontend                         : StaxRip v1.7.0.4

Video
ID                                       : 1
Format                                   : HEVC
Format/Info                              : High Efficiency Video Coding
Format profile                           : Main [email protected]@High
Codec ID                                 : V_MPEGH/ISO/HEVC
Duration                                 : 53 min 6 s
Bit rate                                 : 14.0 Mb/s
Width                                    : 3 840 pixels
Height                                   : 2 160 pixels
Display aspect ratio                     : 16:9
Frame rate mode                          : Constant
Frame rate                               : 23.976 (24000/1001) FPS
Color space                              : YUV
Chroma subsampling                       : 4:2:0
Bit depth                                : 10 bits
Bits/(Pixel*Frame)                       : 0.070
Stream size                              : 5.18 GiB (87%)
Writing library                          : x265 2.6+17-7a6d244c922b:[Windows][GCC 7.2.0][64 bit] 10bit
Encoding settings                        : cpuid=1173503 / frame-threads=3 / numa-pools=8 / wpp / no-pmode / no-pme / no-psnr / no-ssim / log-level=2 / input-csp=1 / input-res=3840x2160 / interlace=0 / total-frames=76407 / level-idc=51 / high-tier=1 / uhd-bd=0 / ref=4 / no-allow-non-conformance / repeat-headers / annexb / no-aud / no-hrd / info / hash=0 / no-temporal-layers / no-open-gop / min-keyint=23 / keyint=250 / gop-lookahead=0 / bframes=4 / b-adapt=2 / b-pyramid / bframe-bias=0 / rc-lookahead=25 / lookahead-slices=8 / scenecut=40 / no-intra-refresh / ctu=64 / min-cu-size=8 / no-rect / no-amp / max-tu-size=32 / tu-inter-depth=1 / tu-intra-depth=1 / limit-tu=0 / rdoq-level=0 / dynamic-rd=0.00 / no-ssim-rd / signhide / no-tskip / nr-intra=0 / nr-inter=0 / no-constrained-intra / strong-intra-smoothing / max-merge=2 / limit-refs=3 / no-limit-modes / me=1 / subme=2 / merange=57 / temporal-mvp / weightp / no-weightb / no-analyze-src-pics / deblock=-1:-2 / sao / no-sao-non-deblock / rd=3 / no-early-skip / rskip / no-fast-intra / no-tskip-fast / no-cu-lossless / no-b-intra / no-splitrd-skip / rdpenalty=0 / psy-rd=2.00 / psy-rdoq=0.00 / no-rd-refine / analysis-reuse-mode=0 / no-lossless / cbqpoffs=0 / crqpoffs=0 / rc=crf / crf=19.5 / qcomp=0.60 / qpstep=4 / stats-write=0 / stats-read=0 / vbv-maxrate=160000 / vbv-bufsize=160000 / vbv-init=0.9 / crf-max=0.0 / crf-min=0.0 / ipratio=1.40 / pbratio=1.30 / aq-mode=1 / aq-strength=1.00 / cutree / zone-count=0 / no-strict-cbr / qg-size=32 / no-rc-grain / qpmax=69 / qpmin=0 / no-const-vbv / sar=0 / overscan=0 / videoformat=5 / range=0 / colorprim=9 / transfer=16 / colormatrix=9 / chromaloc=0 / display-window=0 / master-display=G(0,0)B(0,0)R(0,0)WP(0,0)L(0,0) / max-cll=0,0 / min-luma=0 / max-luma=1023 / log2-max-poc-lsb=8 / vui-timing-info / vui-hrd-info / slices=1 / no-opt-qp-pps / no-opt-ref-list-length-pps / no-multi-pass-opt-rps / scenecut-bias=0.05 / no-opt-cu-delta-qp / no-aq-motion / hdr / no-hdr-opt / no-dhdr10-opt / analysis-reuse-level=5 / scale-factor=0 / refine-intra=0 / refine-inter=0 / refine-mv=0 / no-limit-sao / ctu-info=0 / no-lowpass-dct / refine-mv-type=0 / copy-pic=1
Default                                  : Yes
Forced                                   : No
Color range                              : Limited
Color primaries                          : BT.2020
Transfer characteristics                 : PQ
Matrix coefficients                      : BT.2020 non-constant
Mastering display color primaries        : R: x=0.000000 y=0.000000, G: x=0.000000 y=0.000000, B: x=0.000000 y=0.000000, White point: x=0.000000 y=0.000000
Mastering display luminance              : min: 0.0000 cd/m2, max: 0.0000 cd/m2

Audio #1
ID                                       : 2
Format                                   : DTS
Format/Info                              : Digital Theater Systems
Mode                                     : 16
Format settings, Endianness              : Big
Codec ID                                 : A_DTS
Duration                                 : 53 min 4 s
Bit rate mode                            : Constant
Bit rate                                 : 1 509 kb/s
Channel(s)                               : 6 channels
Channel positions                        : Front: L C R, Side: L R, LFE
Sampling rate                            : 48.0 kHz
Frame rate                               : 93.750 FPS (512 SPF)
Bit depth                                : 24 bits
Compression mode                         : Lossy
Stream size                              : 573 MiB (9%)
Language                                 : German
Default                                  : No
Forced                                   : No

Audio #2
ID                                       : 3
Format                                   : AC-3
Format/Info                              : Audio Coding 3
Format settings, Endianness              : Big
Codec ID                                 : A_AC3
Duration                                 : 53 min 4 s
Bit rate mode                            : Constant
Bit rate                                 : 640 kb/s
Channel(s)                               : 6 channels
Channel positions                        : Front: L C R, Side: L R, LFE
Sampling rate                            : 48.0 kHz
Frame rate                               : 31.250 FPS (1536 SPF)
Bit depth                                : 16 bits
Compression mode                         : Lossy
Stream size                              : 243 MiB (4%)
Language                                 : English
Service kind                             : Complete Main
Default                                  : No
Forced                                   : No

Menu
00:00:00.000                             : de:Chapter 01
00:12:26.162                             : de:Chapter 02
00:18:49.086                             : de:Chapter 03
00:33:44.856                             : de:Chapter 04
00:43:04.456                             : de:Chapter 05
00:53:04.347                             : de:Chapter 06

Passwort: NIMA4K
Hoster: Share-Online, Rapidgator

Kommentare (8)

Bitte nutze die Kommentierfunktion ausschließlich für releasespezifische Kommentare! Alles weitere kann gern in der Shoutbox oder im Forum diskutiert werden.

Kommentar schreiben

Du bist nicht eingeloggt! Bitte registriere Dich hier, um einen Kommentar zu schreiben. Falls Du bereits einen Account hast, kannst du dich hier einloggen.

Dennis4K 16.11.2018 - 10:39 Uhr

Ja ich feier die Seite auch sehr hart, ist auch die einzige wo ich einen Account gemacht habe! #Nima4President (*K)

zeki 13.11.2018 - 22:05 Uhr

Nima4K hat hier im Internet hohe standards gelegt in Sachen UHD würde ich sagen.Hier weißt du immer was du bekommst!

moszaik 13.11.2018 - 17:24 Uhr

@ all

Also ich tendiere auch zwecks Platzauslastung des NAS-Storage Servers teilweise auf "Encodes" bei normalen FIlmen,
solange dieser ordentlich und mit gut errechneter Bitrate Encoded wurden. Alle von NiMA4K bereitgestellten Encode
Releases, welche von mir geladen wurden, waren einwandfrei in der Darstellung bis 75".

regards,
mos

Dennis4K 13.11.2018 - 11:25 Uhr

Also für ein "Encode" ist das eine TOP Qualität... ich habe ein Bildvergleich zum Remux (der 3 mal so viel Speicher frisst) gemacht an einem Samsung 4k Premium TV und absolut kein unterschied zu erkannt. Vielen Dank für den Upload

Speziald 01.01.2018 - 19:05 Uhr

Joa verstehen tue ich es auch nicht so wirklich, aber das ist ja nun mal Nima seine Seite und seine Entscheidung :D

DaywalkerNL 01.01.2018 - 19:02 Uhr

Bitte niemand als Beleidung oder "schlecht machen" auffassen... aber ich finde das nicht zu dieser Seite. Bei Nima4K findet man sonst nur hochwertige Releases, ohne Qualitäts/-Platzkompromisse.... irgendwelche "Rips" (vereinfacht ausgedrückt) finde ich auf allen anderen Warez Sites ohne Ende.- Ist aber nur meine Auffassung und muss nicht für die breite Masse sprechen.

Speziald 01.01.2018 - 15:49 Uhr

Nun das gleiche wie es schon bei den 1080p Releasen war.. Das waren (ausgenommen remux und completes) alles encodes.. Sprich kleinere Versionen von den Filmen, niedrigere Bitrate etc. für Leute die nicht viel Platz haben bzw weniger Laden wollen ^^

Siegfried 01.01.2018 - 15:47 Uhr

Ich glaube wir bräuchten hier eine FAQ :-)

Was bedeutet bei den Filmen der Hinweise "Encode"