Your first Source for 4K-Releases

The.Hateful.8.2015.German.DTSD.4K.2160p.DCPRip.x264-marban

The Hateful 8 (2015) The.Hateful.8.2015.German.DTSD.4K.2160p.DCPRip.x264-marban

Eingetragen am 12.09.2016 um 12:54 Uhr

  • Größe 41,90 GB
  • Codec AVC x264
  • Source DCPRip
  • Sprache Deutsch DTS HD MA 5.1, Englisch DTS HD MA 5.1
  • Auflösung 3840x1396
  • Laufzeit 2 Stunden 40 Minuten
  • Bitrate 30,30 Mb/s

Irgendwo im verschneiten Wyoming, einige Jahre nach dem Bürgerkrieg: Eine Postkutsche kämpft sich auf dem Weg zum Städtchen Red Rock durch die Landschaft. An Bord sind der Kopfgeldjäger John Ruth, seine Gefangene Daisy Domergue und zwei erst auf dem Weg zugestiegene Passagiere: der Ex-Soldat und nun ebenfalls als Kopfgeldjäger tätige Marquis Warren sowie Chris Mannix, der angibt, der neue Sheriff von Red Rock zu sein. Aufgrund eines heftigen Schneesturms sind sie jedoch dazu gezwungen, in einer Hütte Zuflucht zu suchen. Dort verstecken sich bereits der Mexikaner Bob, der undurchsichtige Oswaldo Mobray, der Cowboy Joe Gage und der in die Jahre gekommene Südstaaten-General Sanford Smithers vor dem Wetter. Schnell nehmen die Spannungen in der Gruppe von misstrauischen Raubeinen zu, nachdem man sich anfangs noch bestens unterhalten hat. Und bald wird klar, dass längst nicht jeder von ihnen die Hütte lebend verlassen wird.

Hinweis:
4k Rip vom Nachfolger der Kinofilmrolle (DCP Festplatte), deutscher Ton von der Bluray.

Trailer

Release Media Infos

General
Unique ID                                : 176997712162521672304441550516788917303 (0x852884F704672750AE6CA335AB57F437)
Complete name                            : The.Hateful.8.2015.German.DTSD.4K.2160p.DCPRip.x264-marban.mkv
Format                                   : Matroska
Format version                           : Version 4 / Version 2
File size                                : 41.9 GiB
Duration                                 : 2h 40mn
Overall bit rate                         : 37.3 Mbps
Encoded date                             : UTC 2016-09-09 14:32:22
Writing application                      : mkvmerge v9.3.1 ('Mask Machine') 64bit
Writing library                          : libebml v1.3.4 + libmatroska v1.4.5

Video
ID                                       : 1
Format                                   : AVC
Format/Info                              : Advanced Video Codec
Format profile                           : [email protected]
Format settings, CABAC                   : Yes
Format settings, ReFrames                : 8 frames
Codec ID                                 : V_MPEG4/ISO/AVC
Duration                                 : 2h 40mn
Bit rate                                 : 30.3 Mbps
Width                                    : 3 840 pixels
Height                                   : 1 396 pixels
Display aspect ratio                     : 2.751
Frame rate mode                          : Constant
Frame rate                               : 25.000 fps
Color space                              : YUV
Chroma subsampling                       : 4:2:0
Bit depth                                : 8 bits
Scan type                                : Progressive
Bits/(Pixel*Frame)                       : 0.226
Stream size                              : 34.1 GiB (81%)
Writing library                          : x264 core 148 r2705kMod 3f5ed56
Encoding settings                        : cabac=1 / ref=8 / deblock=1:-2:-2 / analyse=0x3:0x113 / me=umh / subme=11 / psy=1 / fade_compensate=0.00 / psy_rd=1.00:0.10 / mixed_ref=1 / me_range=32 / chroma_me=1 / trellis=2 / 8x8dct=1 / cqm=0 / deadzone=21,11 / fast_pskip=0 / chroma_qp_offset=-3 / threads=18 / lookahead_threads=4 / sliced_threads=0 / nr=0 / decimate=0 / interlaced=0 / bluray_compat=0 / constrained_intra=0 / fgo=0 / bframes=10 / b_pyramid=2 / b_adapt=2 / b_bias=0 / direct=1 / weightb=1 / open_gop=0 / weightp=2 / keyint=250 / keyint_min=25 / scenecut=40 / intra_refresh=0 / rc=crf / mbtree=0 / crf=18.5000 / qcomp=0.60 / qpmin=0 / qpmax=69 / qpstep=4 / ip_ratio=1.40 / pb_ratio=1.30 / aq=1:0.95
Language                                 : English
Default                                  : Yes
Forced                                   : No

Audio #1
ID                                       : 2
Format                                   : DTS
Format/Info                              : Digital Theater Systems
Format profile                           : MA / Core
Mode                                     : 16
Format settings, Endianness              : Big
Codec ID                                 : A_DTS
Duration                                 : 2h 40mn
Bit rate mode                            : Variable / Constant
Bit rate                                 : 3 411 Kbps / 1 509 Kbps
Channel(s)                               : 6 channels
Channel positions                        : Front: L C R, Side: L R, LFE
Sampling rate                            : 48.0 KHz
Frame rate                               : 93.750 fps (512 spf)
Bit depth                                : 24 bits
Compression mode                         : Lossless / Lossy
Stream size                              : 3.83 GiB (9%)
Title                                    : DTS-HD MA 5.1 - Blu-ray
Language                                 : German
Default                                  : Yes
Forced                                   : No

Audio #2
ID                                       : 3
Format                                   : DTS
Format/Info                              : Digital Theater Systems
Format profile                           : MA / Core
Mode                                     : 16
Format settings, Endianness              : Big
Codec ID                                 : A_DTS
Duration                                 : 2h 40mn
Bit rate mode                            : Variable / Constant
Bit rate                                 : 3 550 Kbps / 1 509 Kbps
Channel(s)                               : 6 channels
Channel positions                        : Front: L C R, Side: L R, LFE
Sampling rate                            : 48.0 KHz
Frame rate                               : 93.750 fps (512 spf)
Bit depth                                : 24 bits
Compression mode                         : Lossless / Lossy
Stream size                              : 3.99 GiB (10%)
Title                                    : DTS-HD MA 5.1 - Blu-ray
Language                                 : English
Default                                  : No
Forced                                   : No

Text #1
ID                                       : 4
Format                                   : UTF-8
Codec ID                                 : S_TEXT/UTF8
Codec ID/Info                            : UTF-8 Plain Text
Duration                                 : 2h 40mn
Bit rate                                 : 70 bps
Count of elements                        : 3045
Stream size                              : 83.0 KiB (0%)
Title                                    : SDH
Language                                 : English
Default                                  : No
Forced                                   : No

Text #2
ID                                       : 5
Format                                   : UTF-8
Codec ID                                 : S_TEXT/UTF8
Codec ID/Info                            : UTF-8 Plain Text
Duration                                 : 2h 32mn
Bit rate                                 : 65 bps
Count of elements                        : 2633
Stream size                              : 73.0 KiB (0%)
Language                                 : English
Default                                  : No
Forced                                   : No

Text #3
ID                                       : 6
Format                                   : PGS
Muxing mode                              : zlib
Codec ID                                 : S_HDMV/PGS
Codec ID/Info                            : Picture based subtitle format used on BDs/HD-DVDs
Duration                                 : 2h 35mn
Bit rate                                 : 24.8 Kbps
Count of elements                        : 4917
Stream size                              : 27.5 MiB (0%)
Language                                 : German
Default                                  : Yes
Forced                                   : No

Text #4
ID                                       : 7
Format                                   : PGS
Muxing mode                              : zlib
Codec ID                                 : S_HDMV/PGS
Codec ID/Info                            : Picture based subtitle format used on BDs/HD-DVDs
Duration                                 : 2h 12mn
Bit rate                                 : 216 bps
Count of elements                        : 43
Stream size                              : 210 KiB (0%)
Title                                    : German Forced
Language                                 : German
Default                                  : No
Forced                                   : Yes

Menu
00:00:00.000                             : en:00:00:00.000
00:00:38.800                             : en:00:00:38.800
00:18:20.520                             : en:00:18:20.520
00:41:54.480                             : en:00:41:54.480
01:00:05.840                             : en:01:00:05.840
01:24:40.560                             : en:01:24:40.560
01:38:43.720                             : en:01:38:43.720
01:54:47.600                             : en:01:54:47.600
02:17:01.440                             : en:02:17:01.440

Passwort: NIMA4K
Hoster: Share-online, Uploaded

Kommentare (17)

Bitte nutze die Kommentierfunktion ausschließlich für Releasespezifische Kommentare! Alles weitere kann gern in der Shoutbox oder im Forum diskutiert werden.

Kommentar schreiben

Offlinedateien werden vom System automatisch erkannt und der Reupload angestoßen. Schau am besten in ein paar Stunden wieder rein :)
CAPTCHA Image

komacrew 07.01.2017 - 18:50 Uhr

Bei mir weder Bild noch Ton. Auf mehreren KS Modellen von Samsung getestet.

logotron 03.01.2017 - 19:22 Uhr

Auf Samsung KS8090 gibt es keinen Ton, schade.

logotron 18.12.2016 - 14:59 Uhr

Wenn ich den Film abspiele auf einem neuen Samsung TV dann bricht es ab mit einer Fehlermeldung dass der Ton nicht abgespielt werden kann.

[email protected] 12.12.2016 - 11:37 Uhr

Der Film läuft nicht auf Samsung 7090 ... gleube weil die .nfo datei fehlt ... ?!?!??!

Test79 22.09.2016 - 18:19 Uhr

Läuft leider nicht auf samsung ks8090, schade !

Daniel 22.09.2016 - 06:45 Uhr

Wird hier der Farbraum Bt.2020 unterstützt oder vielleicht HDR ?

roci 19.09.2016 - 14:56 Uhr

Kann mir jemand sagen warum man die Datei nicht auf dem KS8090 oder 9090 abspielen kann?

Bob 18.09.2016 - 10:05 Uhr

ob er nun in Russland in 25p auf BD rauskam weiss ich nicht, die Audiofile stammt angeblich vom DCP
Russian: 48 kHz/24-bit, DTS-HD MA 5.1, ~2160.00 kbps avg |??????, DCP|

keine Ahnung was die damit gemacht haben, in der Regel sind solche Filme international immer 24p im DCP
ohne source log kann man leider nichts weiter dazu sagen...

interessant wäre ob noch weitere DCP rips kommen, denn bis jetzt gibt es da nicht so viel von...

marban 15.09.2016 - 20:29 Uhr

War er in Russland auch in 24p? In Russland gibt es einige 25fps BDs.

Bob 15.09.2016 - 16:53 Uhr

@marban

nein, eigentlich kein Problem ;)
nur ist halt die Frage wieso es beim encodieren des dcp überhaupt erst beschleunigt wurde (ich weiss die source kommt von wo anders), denn der war ja nun mal im Ursprung 24p.

Stallone 13.09.2016 - 19:04 Uhr

Dank für die Info

hosenscheißer 13.09.2016 - 14:36 Uhr

Ausgezeichnete Qualität!

Stallone 13.09.2016 - 12:51 Uhr

Wie ist Bilt qualie? Kan da zu einer was sagen? Danke

marban 13.09.2016 - 07:36 Uhr

Wurde als UHD Spec vorgesehen, hat aber bis jetzt noch keine UHD. Diese Version ist ja auch keine UHD.

User 12.09.2016 - 23:29 Uhr

Sollten UHDs nicht 60 FPS haben?

marban 12.09.2016 - 22:16 Uhr

Ist das ein Problem? Pitchkorrektur wurde vorgenommen.
Hätte ich das Bild verlangsamt, hatte man Microruckler und mehr Aufwand beim dubben, da ich beide Tonspuren hätte machen müssen.

Bob 12.09.2016 - 20:46 Uhr

nice release, THX :)
aber warum hast du nicht die source framerate auf 23,976 angepasst? somit läuft der Ton der Blu-Ray doch auf 25 frames...
das hätte man doch hier anpassen können oder?