Your first Source for 4K-Releases

Sneaky.Pete.S01.2160p.Amazon.WEBRip.DD5.1.x264-TrollUHD

Sneaky Pete (Season 1) (Continued) Sneaky.Pete.S01.2160p.Amazon.WEBRip.DD5.1.x264-TrollUHD

Eingetragen am 06.04.2016 um 17:44 Uhr

  • Größe Pro Folge ca. 9,04 GB
  • Codec AVC x264
  • Source WebRip
  • Sprache English DD 5.1
  • Auflösung 3840x2160
  • Laufzeit pro Folge ca. 50 Minuten
  • Bitrate 27,30 Mb/s

Episodes individually loadable

After leaving prison, Marius takes cover from his past by assuming the identity of his cellmate, Pete. He moves in with Pete's long-estranged, unsuspecting family and is roped into the family's bail bond business. He's a criminal taking down other criminals and, in the process, he'll discover the family life he's never had. Executive produced by David Shore, Bryan Cranston, and Seth Gordon.

Included Episodes:

Episode 01: Sneaky Pete

Trailer

Release Media Infos

General
Unique ID                                : 254894146256480270290176903418816195408 (0xBFC2D3AF39086040B0ECA3C7AA1F6B50)
Complete name                            : Sneaky.Pete.S01E01.2160p.Amazon.WEBRip.DD5.1.x264-TrollUHD.mkv
Format                                   : Matroska
Format version                           : Version 4 / Version 2
File size                                : 9.04 GiB
Duration                                 : 47mn 30s
Overall bit rate                         : 27.3 Mbps
Encoded date                             : UTC 2016-03-26 01:11:36
Writing application                      : mkvmerge v8.3.0 ('Over the Horizon') 64bit
Writing library                          : libebml v1.3.1 + libmatroska v1.4.2
DURATION                                 : 00:47:30.752000000
NUMBER_OF_FRAMES                         : 89086
NUMBER_OF_BYTES                          : 228060160
_STATISTICS_WRITING_APP                  : mkvmerge v8.3.0 ('Over the Horizon') 64bit
_STATISTICS_WRITING_DATE_UTC             : 2016-03-26 01:11:36
_STATISTICS_TAGS                         : BPS DURATION NUMBER_OF_FRAMES NUMBER_OF_BYTES

Video
ID                                       : 1
Format                                   : AVC
Format/Info                              : Advanced Video Codec
Format profile                           : [email protected]
Format settings, CABAC                   : Yes
Format settings, ReFrames                : 5 frames
Codec ID                                 : V_MPEG4/ISO/AVC
Duration                                 : 47mn 30s
Bit rate                                 : 26.1 Mbps
Width                                    : 3 840 pixels
Height                                   : 2 160 pixels
Display aspect ratio                     : 16:9
Frame rate mode                          : Constant
Frame rate                               : 23.976 fps
Color space                              : YUV
Chroma subsampling                       : 4:2:0
Bit depth                                : 8 bits
Scan type                                : Progressive
Bits/(Pixel*Frame)                       : 0.131
Stream size                              : 8.65 GiB (96%)
Writing library                          : x264 core 148 r2638 7599210
Encoding settings                        : cabac=1 / ref=5 / deblock=1:-1:-1 / analyse=0x3:0x133 / me=umh / subme=10 / psy=1 / psy_rd=1.00:0.15 / mixed_ref=1 / me_range=48 / chroma_me=1 / trellis=2 / 8x8dct=1 / cqm=0 / deadzone=21,11 / fast_pskip=1 / chroma_qp_offset=-3 / threads=12 / lookahead_threads=2 / sliced_threads=0 / nr=0 / decimate=0 / interlaced=0 / bluray_compat=0 / constrained_intra=0 / bframes=8 / b_pyramid=2 / b_adapt=2 / b_bias=0 / direct=3 / weightb=1 / open_gop=0 / weightp=2 / keyint=240 / keyint_min=23 / scenecut=40 / intra_refresh=0 / rc_lookahead=60 / rc=crf / mbtree=1 / crf=17.0 / qcomp=0.70 / qpmin=0 / qpmax=69 / qpstep=4 / vbv_maxrate=300000 / vbv_bufsize=300000 / crf_max=0.0 / nal_hrd=none / filler=0 / ip_ratio=1.40 / aq=1:0.90
Default                                  : Yes
Forced                                   : No

Audio
ID                                       : 2
Format                                   : AC-3
Format/Info                              : Audio Coding 3
Mode extension                           : CM (complete main)
Format settings, Endianness              : Big
Codec ID                                 : A_AC3
Duration                                 : 47mn 30s
Bit rate mode                            : Constant
Bit rate                                 : 640 Kbps
Channel(s)                               : 6 channels
Channel positions                        : Front: L C R, Side: L R, LFE
Sampling rate                            : 48.0 KHz
Bit depth                                : 16 bits
Compression mode                         : Lossy
Stream size                              : 217 MiB (2%)
Language                                 : English
Default                                  : Yes
Forced                                   : No

Passwort: NIMA4K
Hoster: Share-online, Uploaded

Kommentare (0)

Bitte nutze die Kommentierfunktion ausschließlich für Releasespezifische Kommentare! Alles weitere kann gern in der Shoutbox oder im Forum diskutiert werden.

Kommentar schreiben

Du bist nicht eingeloggt! Bitte registriere Dich hier, um einen Kommentar zu schreiben. Falls Du bereits einen Account hast, kannst du dich hier einloggen.
Noch keine Kommentare vorhanden. Schreibe den ersten Kommentar!