Your first Source for 4K-Releases

Patriot.S01.2160p.Amazon.WEBRip.DD5.1.x264-TrollUHD

Patriot (Season 1) (Continued) Patriot.S01.2160p.Amazon.WEBRip.DD5.1.x264-TrollUHD

Eingetragen am 05.04.2016 um 19:24 Uhr

  • Größe Pro Folge ca. 11,60 GB
  • Codec AVC x264
  • Source WebRip
  • Sprache English DD 5.1
  • Auflösung 3840x2160
  • Laufzeit pro Folge ca. 60 Minuten
  • Bitrate 28,40 Mb/s

Episodes individually loadable

Intelligence officer John Tavner's latest assignment, to prevent Iran from going nuclear, requires him to forgo all safety nets and assume a "non-official cover" as a mid-level employee at a Midwestern industrial piping firm. A bout with PTSD, the government's incompetence, and the intricacies of keeping his day job cause a barrage of ever-escalating fiascos that jeopardize the mission.

Included Episodes:

Episode 01: Patriot

Release Media Infos

General
Unique ID                                : 232852197034165590200681129784792829310 (0xAF2DB3AEF60F630D95D26C9AE463CD7E)
Complete name                            : Patriot.S01E01.2160p.Amazon.WEBRip.DD5.1.x264-TrollUHD.mkv
Format                                   : Matroska
Format version                           : Version 4 / Version 2
File size                                : 11.6 GiB
Duration                                 : 58mn 14s
Overall bit rate                         : 28.4 Mbps
Encoded date                             : UTC 2016-03-22 19:40:46
Writing application                      : mkvmerge v8.3.0 ('Over the Horizon') 64bit
Writing library                          : libebml v1.3.1 + libmatroska v1.4.2
DURATION                                 : 00:58:14.688000000
NUMBER_OF_FRAMES                         : 109209
NUMBER_OF_BYTES                          : 279575040
_STATISTICS_WRITING_APP                  : mkvmerge v8.3.0 ('Over the Horizon') 64bit
_STATISTICS_WRITING_DATE_UTC             : 2016-03-22 19:40:46
_STATISTICS_TAGS                         : BPS DURATION NUMBER_OF_FRAMES NUMBER_OF_BYTES

Video
ID                                       : 1
Format                                   : AVC
Format/Info                              : Advanced Video Codec
Format profile                           : [email protected]
Format settings, CABAC                   : Yes
Format settings, ReFrames                : 5 frames
Codec ID                                 : V_MPEG4/ISO/AVC
Duration                                 : 58mn 14s
Bit rate                                 : 27.2 Mbps
Width                                    : 3 840 pixels
Height                                   : 2 160 pixels
Display aspect ratio                     : 16:9
Frame rate mode                          : Constant
Frame rate                               : 23.976 fps
Color space                              : YUV
Chroma subsampling                       : 4:2:0
Bit depth                                : 8 bits
Scan type                                : Progressive
Bits/(Pixel*Frame)                       : 0.137
Stream size                              : 11.1 GiB (96%)
Writing library                          : x264 core 148 r2638 7599210
Encoding settings                        : cabac=1 / ref=5 / deblock=1:-1:-1 / analyse=0x3:0x133 / me=umh / subme=10 / psy=1 / psy_rd=1.00:0.15 / mixed_ref=1 / me_range=48 / chroma_me=1 / trellis=2 / 8x8dct=1 / cqm=0 / deadzone=21,11 / fast_pskip=1 / chroma_qp_offset=-3 / threads=12 / lookahead_threads=2 / sliced_threads=0 / nr=0 / decimate=0 / interlaced=0 / bluray_compat=0 / constrained_intra=0 / bframes=8 / b_pyramid=2 / b_adapt=2 / b_bias=0 / direct=3 / weightb=1 / open_gop=0 / weightp=2 / keyint=240 / keyint_min=23 / scenecut=40 / intra_refresh=0 / rc_lookahead=60 / rc=crf / mbtree=1 / crf=17.0 / qcomp=0.70 / qpmin=0 / qpmax=69 / qpstep=4 / vbv_maxrate=300000 / vbv_bufsize=300000 / crf_max=0.0 / nal_hrd=none / filler=0 / ip_ratio=1.40 / aq=1:0.90
Default                                  : Yes
Forced                                   : No

Audio
ID                                       : 2
Format                                   : AC-3
Format/Info                              : Audio Coding 3
Mode extension                           : CM (complete main)
Format settings, Endianness              : Big
Codec ID                                 : A_AC3
Duration                                 : 58mn 14s
Bit rate mode                            : Constant
Bit rate                                 : 640 Kbps
Channel(s)                               : 6 channels
Channel positions                        : Front: L C R, Side: L R, LFE
Sampling rate                            : 48.0 KHz
Bit depth                                : 16 bits
Compression mode                         : Lossy
Stream size                              : 267 MiB (2%)
Language                                 : English
Default                                  : Yes
Forced                                   : No

Passwort: NIMA4K
Hoster: Share-online, Uploaded

Kommentare (0)

Bitte nutze die Kommentierfunktion ausschließlich für Releasespezifische Kommentare! Alles weitere kann gern in der Shoutbox oder im Forum diskutiert werden.

Kommentar schreiben

Du bist nicht eingeloggt! Bitte registriere Dich hier, um einen Kommentar zu schreiben. Falls Du bereits einen Account hast, kannst du dich hier einloggen.
Noch keine Kommentare vorhanden. Schreibe den ersten Kommentar!