Your first Source for 4K-Releases

F1.2018.Azerbaijan.Grand.Prix.Race.2160p.HDTV.HEVC.50fps.AC3.2.0

Formel 1 - Grand Prix Baku (Race) (2018) F1.2018.Azerbaijan.Grand.Prix.Race.2160p.HDTV.HEVC.50fps.AC3.2.0

Eingetragen am 01.05.2018 um 00:04 Uhr

  • Größe 21,81 GB
  • Codec HEVC
  • Source UHDTV
  • Sprache Deutsch Dolby Digital 2.0
  • Auflösung 3840x2160
  • Laufzeit 2 Stunden 45 Minuten
  • Bitrate 17,60 Mb/s

Formel 1 2018 - Großer Preis von Baku - Das Rennen, inklusive Vorberichte und Analyse (leider nicht 100% vollständig)

Trailer

Release Media Infos

General
ID                                       : 63829 (0xF955)
Complete name                            : D:\F1.2018.Azerbaijan.Grand.Prix.Race.2160p.HDTV.HEVC.50fps.AC3.2.0.ts
Format                                   : MPEG-TS
File size                                : 21.8 GiB
Duration                                 : 2 h 45 min
Overall bit rate mode                    : Variable
Overall bit rate                         : 18.9 Mb/s

Video
ID                                       : 100 (0x64)
Menu ID                                  : 1 (0x1)
Format                                   : HEVC
Format/Info                              : High Efficiency Video Coding
Format profile                           : Main [email protected]@Main
Codec ID                                 : 36
Duration                                 : 2 h 45 min
Bit rate                                 : 17.6 Mb/s
Width                                    : 3 840 pixels
Height                                   : 2 160 pixels
Display aspect ratio                     : 16:9
Frame rate                               : 50.000 FPS
Standard                                 : Component
Color space                              : YUV
Chroma subsampling                       : 4:2:0 (Type 0)
Bit depth                                : 10 bits
Bits/(Pixel*Frame)                       : 0.042
Stream size                              : 20.3 GiB (93%)
Color range                              : Limited
Color primaries                          : BT.709
Transfer characteristics                 : BT.709
Matrix coefficients                      : BT.709

Audio
ID                                       : 200 (0xC8)
Menu ID                                  : 1 (0x1)
Format                                   : AC-3
Format/Info                              : Audio Coding 3
Codec ID                                 : 6
Duration                                 : 2 h 45 min
Bit rate mode                            : Constant
Bit rate                                 : 384 kb/s
Channel(s)                               : 2 channels
Channel positions                        : Front: L R
Sampling rate                            : 48.0 kHz
Frame rate                               : 31.250 FPS (1536 SPF)
Bit depth                                : 16 bits
Compression mode                         : Lossy
Delay relative to video                  : -845 ms
Stream size                              : 454 MiB (2%)
Service kind                             : Complete Main

Menu
ID                                       : 32 (0x20)
Menu ID                                  : 1 (0x1)
Duration                                 : 2 h 45 min
List                                     : 100 (0x64) (HEVC) / 200 (0xC8) (AC-3)
Service type                             : advanced codec SD digital television

Passwort: NIMA4K
Hoster: Share-Online, Rapidgator

Kommentare (4)

Bitte nutze die Kommentierfunktion ausschließlich für Releasespezifische Kommentare! Alles weitere kann gern in der Shoutbox oder im Forum diskutiert werden.

Kommentar schreiben

Du bist nicht eingeloggt! Bitte registriere Dich hier, um einen Kommentar zu schreiben. Falls Du bereits einen Account hast, kannst du dich hier einloggen.

God 01.05.2018 - 21:05 Uhr

Gerne öfters danke

Doge 01.05.2018 - 15:44 Uhr

@inspectah: Das kannst du in den Infos an "Format: MPEG-TS" erkennen. TS steht für Transport Stream, was das Standardformat ist für DVB Übertragungen.

@NIMA: Hast du das Rennen aufgenommen?

NIMA4K 01.05.2018 - 15:37 Uhr

Ja ist es.

inspectah 01.05.2018 - 15:11 Uhr

Ist das untouched Bild?