Your first Source for 4K-Releases

Muse.Live.At.Rome.Olympic.Stadium.2013.2160p.UHDTV.DD5.1.HEVC-BtttS

Muse - Live At Rome Olympic Stadium (2013) Muse.Live.At.Rome.Olympic.Stadium.2013.2160p.UHDTV.DD5.1.HEVC-BtttS

Eingetragen am 25.03.2016 um 02:57 Uhr

  • Größe 21,50 GB
  • Codec HEVC x265
  • Source UHDTV
  • Sprache English DTS-HD MA 5.1, English Flac 2.0, Korean DD 5.1
  • Auflösung 3840x2160
  • Laufzeit 1 Stunde 27 Minuten
  • Bitrate 41,10 Mb/s

„Muse – Live at Rome Olympic Stadium” wurde am 6. Juli 2013 vor einem Publikum von über 60.000 Zuschauern gefilmt, fängt diesen unvergesslichen Abend in der italienischen Hauptstadt ein und zeigt das extravaganteste Bühnen-Set Up und die spektakulärste Bühnenshow aller Muse-Tourneen bis zum heutigen Tag. Die drei Schulfreunde aus Devon nehmen das Publikum mit auf eine faszinierende Reise, bei der Pyrotechniken, gewaltige digitale Leinwände und eine ganze Truppe von Schauspielern zum Einsatz kommen. Dies alles begleitet ihre grandiose Auswahl von 20 Songs, gemixt in atemberaubendem Surround Sound, darunter auch die Hits von ihrem letzten Studio-Album „The 2nd Law“ sowie zahlreiche Klassiker wie „Uprising“, „Supermassive Black Hole“, „Time Is Running Out“, „Starlight“ und „Plug-In Baby“.

Trailer

Release Media Infos

General
Unique ID                                : 192966964937144498098360757942282543306 (0x912C15EA3585CCA68079058DC72EE0CA)
Complete name                            : Muse.Live.At.Rome.Olympic.Stadium.2013.2160p.UHDTV.DD5.1.HEVC-BtttS.mkv
Format                                   : Matroska
Format version                           : Version 4 / Version 2
File size                                : 25.1 GiB
Duration                                 : 1h 27mn
Overall bit rate mode                    : Variable
Overall bit rate                         : 41.1 Mbps
Encoded date                             : UTC 2016-02-13 15:22:51
Writing application                      : mkvmerge v8.8.0 ('Wind at my back') 64bit
Writing library                          : libebml v1.3.3 + libmatroska v1.4.4
DURATION                                 : 01:27:18.202000000
NUMBER_OF_FRAMES                         : 436517
NUMBER_OF_BYTES                          : 2056681849
_STATISTICS_WRITING_APP                  : mkvmerge v8.8.0 ('Wind at my back') 64bit
_STATISTICS_WRITING_DATE_UTC             : 2016-02-13 15:22:51
_STATISTICS_TAGS                         : BPS DURATION NUMBER_OF_FRAMES NUMBER_OF_BYTES

Video
ID                                       : 1
Format                                   : HEVC
Format/Info                              : High Efficiency Video Coding
Format profile                           : Main 10@L5.1
Codec ID                                 : V_MPEGH/ISO/HEVC
Duration                                 : 1h 27mn
Width                                    : 3 840 pixels
Height                                   : 2 160 pixels
Display aspect ratio                     : 16:9
Frame rate mode                          : Constant
Frame rate                               : 60.000 fps
Color space                              : YUV
Chroma subsampling                       : 4:2:0
Bit depth                                : 10 bits
Title                                    : Muse.Live.At.Rome.Olympic.Stadium.2013.2160p.UHDTV.DD5.1.HEVC-BtttS
Writing library                          : ATEME Titan KFE 3.6.2 (4.6.1.9)
Default                                  : Yes
Forced                                   : No

Audio #1
ID                                       : 2
Format                                   : DTS
Format/Info                              : Digital Theater Systems
Format profile                           : 96/24 / Core
Mode                                     : 16
Format settings, Endianness              : Big
Codec ID                                 : A_DTS
Duration                                 : 1h 27mn
Bit rate mode                            : Constant
Bit rate                                 : 1 509 Kbps
Channel(s)                               : 6 channels
Channel positions                        : Front: L C R, Side: L R, LFE
Sampling rate                            : 96.0 KHz / 48.0 KHz
Bit depth                                : 24 bits
Compression mode                         : Lossy
Stream size                              : 942 MiB (4%)
Title                                    : DTS-HD MA 5.1 24/96 from Blu-ray
Language                                 : English
Default                                  : Yes
Forced                                   : No

Audio #2
ID                                       : 3
Format                                   : FLAC
Format/Info                              : Free Lossless Audio Codec
Codec ID                                 : A_FLAC
Duration                                 : 1h 27mn
Bit rate mode                            : Variable
Channel(s)                               : 2 channels
Sampling rate                            : 96.0 KHz
Bit depth                                : 24 bits
Title                                    : PCM stereo 24/96 from Blu-ray
Writing library                          : libFLAC 1.0.25 (UTC 2007-09-17)
Language                                 : English
Default                                  : No
Forced                                   : No

Audio #3
ID                                       : 4
Format                                   : AC-3
Format/Info                              : Audio Coding 3
Mode extension                           : CM (complete main)
Format settings, Endianness              : Big
Codec ID                                 : A_AC3
Duration                                 : 1h 27mn
Bit rate mode                            : Constant
Bit rate                                 : 384 Kbps
Channel(s)                               : 6 channels
Channel positions                        : Front: L C R, Side: L R, LFE
Sampling rate                            : 48.0 KHz
Bit depth                                : 16 bits
Compression mode                         : Lossy
Stream size                              : 240 MiB (1%)
Language                                 : Korean
Default                                  : No
Forced                                   : No

Passwort: NIMA4K
Hoster: Share-Online, Rapidgator

Kommentare (0)

Bitte nutze die Kommentierfunktion ausschließlich für Releasespezifische Kommentare! Alles weitere kann gern in der Shoutbox oder im Forum diskutiert werden.

Kommentar schreiben

Du bist nicht eingeloggt! Bitte registriere Dich hier, um einen Kommentar zu schreiben. Falls Du bereits einen Account hast, kannst du dich hier einloggen.
Noch keine Kommentare vorhanden. Schreibe den ersten Kommentar!