Your first Source for 4K-Releases

View.from.a.Blue.Moon.2015.2160p.WEB-DL.AAC2.0.x264-ULTRAHDCLUB

View from a Blue Moon (2015) View.from.a.Blue.Moon.2015.2160p.WEB-DL.AAC2.0.x264-ULTRAHDCLUB

Eingetragen am 05.06.2016 um 01:23 Uhr

  • Größe 9,12 GB
  • Codec AVC x264
  • Source Web-DL
  • Sprache English AAC 2.0
  • Auflösung 3840x2160
  • Laufzeit 58 Minuten
  • Bitrate 22,10 Mb/s

See the sport of surfing as it’s never been captured before in John Florence and Blake Vincent Kueny’s second signature release, this time in association with the award-winning film studio Brain Farm. The first surf film shot in 4K, View From a Blue Moon follows the world’s most dynamic surfer John Florence and his closest friends from his home on the North Shore of Oahu to his favorite surfing destinations around the globe. From the dreamy blue perfection of the South Pacific to the darkest uncharted waters of Africa (and everywhere in between), Florence faces a broad spectrum of emotions as he continues to seal his legacy as one of the most gifted surfers ever. And while the young Hawaiian is pulled in increasingly different directions, there is no form of pressure that will keep him from his ultimate goal — to redefine what is possible in the ocean. Narrated by John C. Reilly.

Release Media Infos

General
Complete name                            : View.from.a.Blue.Moon.2015.2160p.WEB-DL.AAC2.0.x264-ULTRAHDCLUB.mp4
Format                                   : MPEG-4
Format profile                           : Base Media / Version 2
Codec ID                                 : mp42 (mp42/mp41/isom/avc1)
File size                                : 9.12 GiB
Duration                                 : 58mn 57s
Overall bit rate mode                    : Variable
Overall bit rate                         : 22.1 Mbps
Encoded date                             : UTC 2016-02-02 20:48:26
Tagged date                              : UTC 2016-02-02 20:48:26

Video
ID                                       : 1
Format                                   : AVC
Format/Info                              : Advanced Video Codec
Format profile                           : [email protected]
Format settings, CABAC                   : Yes
Format settings, ReFrames                : 5 frames
Codec ID                                 : avc1
Codec ID/Info                            : Advanced Video Coding
Duration                                 : 58mn 57s
Bit rate                                 : 21.9 Mbps
Width                                    : 3 840 pixels
Height                                   : 2 160 pixels
Display aspect ratio                     : 16:9
Frame rate mode                          : Constant
Frame rate                               : 23.976 (24000/1001) fps
Color space                              : YUV
Chroma subsampling                       : 4:2:0
Bit depth                                : 8 bits
Scan type                                : Progressive
Bits/(Pixel*Frame)                       : 0.110
Stream size                              : 9.01 GiB (99%)
Writing library                          : x264 core 148 r11 a01e339
Encoding settings                        : cabac=1 / ref=5 / deblock=1:0:0 / analyse=0x3:0x113 / me=umh / subme=8 / psy=1 / psy_rd=1.00:0.00 / mixed_ref=1 / me_range=16 / chroma_me=1 / trellis=1 / 8x8dct=1 / cqm=0 / deadzone=21,11 / fast_pskip=1 / chroma_qp_offset=-2 / threads=67 / lookahead_threads=11 / sliced_threads=0 / nr=0 / decimate=1 / interlaced=0 / bluray_compat=0 / stitchable=1 / constrained_intra=0 / bframes=3 / b_pyramid=2 / b_adapt=2 / b_bias=0 / direct=3 / weightb=1 / open_gop=0 / weightp=2 / keyint=infinite / keyint_min=23 / scenecut=40 / intra_refresh=0 / rc_lookahead=50 / rc=crf / mbtree=1 / crf=20.0 / qcomp=0.60 / qpmin=5 / qpmax=69 / qpstep=4 / vbv_maxrate=24200 / vbv_bufsize=66000 / crf_max=0.0 / nal_hrd=none / filler=0 / ip_ratio=1.40 / aq=1:1.00
Encoded date                             : UTC 2016-02-02 20:48:26
Tagged date                              : UTC 2016-02-02 20:48:26
Color range                              : Limited
Color primaries                          : BT.709
Transfer characteristics                 : BT.709
Matrix coefficients                      : BT.709

Audio
ID                                       : 2
Format                                   : AAC
Format/Info                              : Advanced Audio Codec
Format profile                           : LC
Codec ID                                 : 40
Duration                                 : 58mn 57s
Bit rate mode                            : Variable
Bit rate                                 : 256 Kbps
Channel(s)                               : 2 channels
Channel positions                        : Front: L R
Sampling rate                            : 48.0 KHz
Frame rate                               : 46.875 fps (1024 spf)
Compression mode                         : Lossy
Stream size                              : 108 MiB (1%)
Encoded date                             : UTC 2016-02-02 20:48:26
Tagged date                              : UTC 2016-02-02 20:48:26


Passwort: NIMA4K
Hoster: Share-online, Uploaded, Wi.to

Kommentare (0)

Bitte nutze die Kommentierfunktion ausschließlich für Releasespezifische Kommentare! Alles weitere kann gern in der Shoutbox oder im Forum diskutiert werden.

Kommentar schreiben

Du bist nicht eingeloggt! Bitte registriere Dich hier, um einen Kommentar zu schreiben. Falls Du bereits einen Account hast, kannst du dich hier einloggen.
Noch keine Kommentare vorhanden. Schreibe den ersten Kommentar!