Your first Source for 4K-Releases

Untethered.2015.2160p.WEB-DL.AAC2.0.x264-ULTRAHDCLUB

Untethered (2015) Untethered.2015.2160p.WEB-DL.AAC2.0.x264-ULTRAHDCLUB

Eingetragen am 04.06.2016 um 19:40 Uhr

  • Größe 4,48 GB
  • Codec AVC x264
  • Source Web-DL
  • Sprache English AAC 2.0
  • Auflösung 4096x1716
  • Laufzeit 30 Minuten
  • Bitrate 20,80 Mb/s

Untethered takes an immensely personal look straight into the heart of the slacklining and highlining community in Vancouver BC. This film is an epic ride from beginning to the end. Offering an inspiring look into a group that pursues the unthinkable.

“Your palms will sweat and your heart will race, but you can’t help but be ridiculously inspired. The cinematography, story, and pure slacklife style is beautiful.” - Andy Lewis

Release Media Infos

General
Complete name                            : Untethered.2015.2160p.WEB-DL.AAC2.0.x264-ULTRAHDCLUB.mp4
Format                                   : MPEG-4
Format profile                           : Base Media / Version 2
Codec ID                                 : mp42 (mp42/mp41/isom/avc1)
File size                                : 4.38 GiB
Duration                                 : 30mn 9s
Overall bit rate mode                    : Variable
Overall bit rate                         : 20.8 Mbps
Encoded date                             : UTC 2015-12-10 18:15:49
Tagged date                              : UTC 2015-12-10 18:15:49

Video
ID                                       : 1
Format                                   : AVC
Format/Info                              : Advanced Video Codec
Format profile                           : [email protected]
Format settings, CABAC                   : Yes
Format settings, ReFrames                : 5 frames
Codec ID                                 : avc1
Codec ID/Info                            : Advanced Video Coding
Duration                                 : 30mn 9s
Bit rate                                 : 20.5 Mbps
Width                                    : 4 096 pixels
Height                                   : 1 716 pixels
Display aspect ratio                     : 2.40:1
Frame rate mode                          : Constant
Frame rate                               : 23.976 (24000/1001) fps
Color space                              : YUV
Chroma subsampling                       : 4:2:0
Bit depth                                : 8 bits
Scan type                                : Progressive
Bits/(Pixel*Frame)                       : 0.122
Stream size                              : 4.32 GiB (99%)
Writing library                          : x264 core 148 r11 7599210
Encoding settings                        : cabac=1 / ref=5 / deblock=1:0:0 / analyse=0x3:0x113 / me=umh / subme=8 / psy=1 / psy_rd=1.00:0.00 / mixed_ref=1 / me_range=16 / chroma_me=1 / trellis=1 / 8x8dct=1 / cqm=0 / deadzone=21,11 / fast_pskip=1 / chroma_qp_offset=-2 / threads=48 / lookahead_threads=8 / sliced_threads=0 / nr=0 / decimate=1 / interlaced=0 / bluray_compat=0 / stitchable=1 / constrained_intra=0 / bframes=3 / b_pyramid=2 / b_adapt=2 / b_bias=0 / direct=3 / weightb=1 / open_gop=0 / weightp=2 / keyint=infinite / keyint_min=23 / scenecut=40 / intra_refresh=0 / rc_lookahead=50 / rc=crf / mbtree=1 / crf=20.0 / qcomp=0.60 / qpmin=5 / qpmax=69 / qpstep=4 / vbv_maxrate=24200 / vbv_bufsize=66000 / crf_max=0.0 / nal_hrd=none / filler=0 / ip_ratio=1.40 / aq=1:1.00
Encoded date                             : UTC 2015-12-10 18:15:49
Tagged date                              : UTC 2015-12-10 18:15:49
Color range                              : Limited
Color primaries                          : BT.709
Transfer characteristics                 : BT.709
Matrix coefficients                      : BT.709

Audio
ID                                       : 2
Format                                   : AAC
Format/Info                              : Advanced Audio Codec
Format profile                           : LC
Codec ID                                 : 40
Duration                                 : 30mn 9s
Bit rate mode                            : Variable
Bit rate                                 : 256 Kbps
Channel(s)                               : 2 channels
Channel positions                        : Front: L R
Sampling rate                            : 48.0 KHz
Frame rate                               : 46.875 fps (1024 spf)
Compression mode                         : Lossy
Stream size                              : 55.2 MiB (1%)
Encoded date                             : UTC 2015-12-10 18:15:49
Tagged date                              : UTC 2015-12-10 18:15:49

Passwort: NIMA4K
Hoster: Share-online, Uploaded, Wi.to

Kommentare (0)

Bitte nutze die Kommentierfunktion ausschließlich für Releasespezifische Kommentare! Alles weitere kann gern in der Shoutbox oder im Forum diskutiert werden.

Kommentar schreiben

Offlinedateien werden vom System automatisch erkannt und der Reupload angestoßen. Schau am besten in ein paar Stunden wieder rein :)
CAPTCHA Image
Noch keine Kommentare vorhanden. Schreibe den ersten Kommentar!