Your first Source for 4K-Releases

The.Fifth.Element.1997.4K.COMPLETE.2160p.UltraHD.Blu-ray.HDR.HEVC.DTS-HDRINVASION

Das fünfte Element (1997) (Complete - English) The.Fifth.Element.1997.4K.COMPLETE.2160p.UltraHD.Blu-ray.HDR.HEVC.DTS-HDRINVASION

Eingetragen am 28.10.2017 um 16:57 Uhr

  • Größe 60,36 GB
  • Codec HEVC
  • Source Ultra HD Blu-Ray
  • Sprache English TrueHD Atmos 7.1, French DTS-HD 5.1, Spanish Dolby Digital 5.1
  • Auflösung 3840x2160
  • Laufzeit 2 Stunden 5 Minuten
  • Bitrate 51,20 Mb/s

Im 23. Jahrhundert bewegt sich das Böse in Form eines nahezu unzerstörbaren Kometen auf die Erde zu. Wird er nicht aufgehalten, wird er die Welt vernichten. Doch die Mondoshawan, ein uraltes, friedliebendes Volk, besitzen eine Waffe, das sogenannte fünfte Element, mit der der Komet vernichtet werden kann. Auf ihrem Weg zur Erde werden sie jedoch von bösen Mächten vernichtet, die den Untergang der Menschheit herbeiführen wollen. Wissenschaftlern aber gelingt es, das fast zerstörte fünfte Element wieder herzustellen. Durch eine Reihe von Zufällen wird schließlich der Taxifahrer Korben Dallas in die Geschichte hineingezogen: In seinen Händen liegt plötzlich die Zukunft der Menschheit.

Trailer

Release Media Infos


                                       ``.--::///////::-..`                                          
                             `.:+sydmmmdhhyysssssssssyhhdmmmdhso/-`                                 
                        .:ohmNdyo+:.`                       .-/+shmmdy/:`                           
                    .+ymmy+:`                                       .:+hmyy/.                       
                 -smmy/.                                              . `./ymms:                    
              .ommo-                                                         .+dNy:                 
            -hNy-           .`                                                  .omm/`              
          .hNs.             .sdo.                                                  :yNo`            
         +Nh.                 +MMms+:.                          `:oydmmd-          . :dm/           
        yMo                    -smNMMMNds:`                .:+sdMMMmo-                 oNs`         
       sM/                         .-/+o++o+-            /mNmddddy:                     :oh`        
      :Ms                                               `-`                              -Nh        
      hN.                                                                                `oM/       
     `Nm                                 `-/++////:.` `                                   `Nd       
     `Nm                            ./ohmMMMMMMMMMMMMNNNdy+::::-                           mm`      
      yM-                    `:+oshNMMMMMMMMMMMMMMMMMMMMMMMMMMMMNh+.                      `Nm       
      -My                 `/dMMMMMNdys+:..```.:/+oo:-...:/oshMMMMMMMmy/`                  :Ms       
       oMo               +NMMNy/-`                           +o-.hMhyyNm.                `mN.       
        oMs             .MMNo`                                    `   `hm.              `dN:        
         /Nd-           ym+`                                            +:             -mN-         
          `yNy.        `/                                                            `sNh.          
            -yNy-                                                                  `oNd:            
              .sNmo.                                                             :yNh:              
                 :yNdo-                                                      `:smmo.                
                    :odNh+-`                                             `:ohNh+.                   
                       `:ohmmyo/-`                                 `./oymmho:`                      
                            `:+sdmmdys+/:-.```         ```.-:/+sydmmds+:`                           
                                  `.:/osyhhdmmmmmmmmmmmmmdhhys+/:.`                                

                                     HDRINVASION ;(




 

Complete name                            : The Fifth Element 1997 4K COMPLETE 2160p UltraHD Blu-ray HDR HEVC DTS -HDRINVASION/BDMV/STREAM/00001.m2ts
Format                                   : BDAV
Format/Info                              : Blu-ray Video
File size                                : 56.7 GiB
Duration                                 : 2 h 5 min
Overall bit rate mode                    : Variable
Overall bit rate                         : 64.5 Mb/s
Maximum Overall bit rate                 : 109 Mb/s

Video
ID                                       : 4113 (0x1011)
Menu ID                                  : 1 (0x1)
Format                                   : HEVC
Format/Info                              : High Efficiency Video Coding
Format profile                           : Main [email protected]@High
Codec ID                                 : 36
Duration                                 : 2 h 5 min
Width                                    : 3 840 pixels
Height                                   : 2 160 pixels
Display aspect ratio                     : 16:9
Frame rate                               : 23.976 (24000/1001) FPS
Color space                              : YUV
Chroma subsampling                       : 4:2:0 (Type 2)
Bit depth                                : 10 bits
Color range                              : Limited
Color primaries                          : BT.2020
Transfer characteristics                 : SMPTE ST 2084
Matrix coefficients                      : BT.2020 non-constant
Mastering display color primaries        : R: x=0.680000 y=0.320000, G: x=0.265000 y=0.690000, B: x=0.150000 y=0.060000, White point: x=0.312700 y=0.329000
Mastering display luminance              : min: 0.0050 cd/m2, max: 4000.0000 cd/m2
Maximum Content Light Level              : 10000 cd/m2
Maximum Frame-Average Light Level        : 724 cd/m2

Audio #1
ID                                       : 4352 (0x1100)
Menu ID                                  : 1 (0x1)
Format                                   : Atmos / TrueHD / AC-3
Mode extension                           : CM (complete main)
Format settings, Endianness              : Big
Muxing mode                              : Stream extension
Codec ID                                 : 131
Duration                                 : 2 h 5 min
Bit rate mode                            : Variable / Constant
Bit rate                                 : 640 kb/s
Maximum bit rate                         : 9 144 kb/s
Channel(s)                               : Object Based / 8 channels / 6 channels
Channel positions                        : Object Based / Front: L C R, Side: L R, Back: L R, LFE / Front: L C R, Side: L R, LFE
Sampling rate                            :  / 48.0 kHz / 48.0 kHz
Frame rate                               : 31.250 FPS (1536 spf)
Bit depth                                : 16 bits
Stream size                              : 576 MiB (1%)

Audio #2
ID                                       : 4353 (0x1101)
Menu ID                                  : 1 (0x1)
Format                                   : DTS
Format/Info                              : Digital Theater Systems
Format profile                           : MA / Core
Mode                                     : 16
Format settings, Endianness              : Big
Muxing mode                              : Stream extension
Codec ID                                 : 134
Duration                                 : 2 h 5 min
Bit rate mode                            : Variable / Constant
Bit rate                                 : Unknown / 1 509 kb/s
Channel(s)                               : 6 channels
Channel positions                        : Front: L C R, Side: L R, LFE
Sampling rate                            : 48.0 kHz
Frame rate                               : 93.750 FPS (512 spf)
Bit depth                                : 16 bits
Compression mode                         : Lossless / Lossy

Audio #3
ID                                       : 4354 (0x1102)
Menu ID                                  : 1 (0x1)
Format                                   : AC-3
Format/Info                              : Audio Coding 3
Mode extension                           : CM (complete main)
Format settings, Endianness              : Big
Codec ID                                 : 129
Duration                                 : 2 h 5 min
Bit rate mode                            : Constant
Bit rate                                 : 384 kb/s
Channel(s)                               : 6 channels
Channel positions                        : Front: L C R, Side: L R, LFE
Sampling rate                            : 48.0 kHz
Frame rate                               : 31.250 FPS (1536 spf)
Bit depth                                : 16 bits
Compression mode                         : Lossy
Delay relative to video                  : -12 ms
Stream size                              : 346 MiB (1%)

Text #1
ID                                       : 4768 (0x12A0)
Menu ID                                  : 1 (0x1)
Format                                   : PGS
Codec ID                                 : 144

Text #2
ID                                       : 4769 (0x12A1)
Menu ID                                  : 1 (0x1)
Format                                   : PGS
Codec ID                                 : 144

Text #3
ID                                       : 4770 (0x12A2)
Menu ID                                  : 1 (0x1)
Format                                   : PGS
Codec ID                                 : 144

Text #4
ID                                       : 4771 (0x12A3)
Menu ID                                  : 1 (0x1)
Format                                   : PGS
Codec ID                                 : 144

Passwort: NIMA4K
Hoster: Share-Online, Rapidgator

Kommentare (0)

Bitte nutze die Kommentierfunktion ausschließlich für Releasespezifische Kommentare! Alles weitere kann gern in der Shoutbox oder im Forum diskutiert werden.

Kommentar schreiben

Du bist nicht eingeloggt! Bitte registriere Dich hier, um einen Kommentar zu schreiben. Falls Du bereits einen Account hast, kannst du dich hier einloggen.
Noch keine Kommentare vorhanden. Schreibe den ersten Kommentar!