Your first Source for 4K-Releases

Baymax.Riesiges.Robowabohu.2014.German.Dubbed.DL.2160p.WEB-DL.x264-NIMA4K

Baymax - Riesiges Robowabohu (2014) Baymax.Riesiges.Robowabohu.2014.German.Dubbed.DL.2160p.WEB-DL.x264-NIMA4K

Eingetragen am 29.02.2016 um 05:34 Uhr

  • Größe 29,20 GB
  • Codec AVC x264
  • Source Web-DL
  • Sprache Deutsch DD 5.1
  • Auflösung 3840x2160
  • Laufzeit 1 Stunde 41 Minuten
  • Bitrate 39,80 Mb/s

Hiro Hamada (Stimme: Ryan Potter) ist ein brillanter Teenager und lebt in der futuristischen Stadt San Fransokyo, wo er sein geniales Erfindertalent aber bei weitem nicht so nutzt, wie es sein Bruder Tadashi (Daniel Henney) gerne hätte. Als dieser stirbt, findet Hiro den aufblasbaren Roboter Baymax (Scott Adsit), der von Tadashi entwickelt wurde, um Menschen mit Schmerzen zu helfen. Baymax' tatkräftige Unterstützung kann der aufgeweckte Junge gut gebrauchen, droht doch schon bald ein mysteriöser Mann mit einer Kabuki-Maske damit, seine Heimatstadt zu zerstören. Mit der Hilfe von Baymax und Tadashis Freunden Go Go Tomago (Jamie Chung), Wasabi (Damon Wayans Jr.), Honey Lemon (Genesis Rodriguez) und Fred (T.J. Miller) beschließt Hiro, alles zu tun, um die Katastrophe zu verhindern. Dazu stattet er seine Mitstreiter mit allerlei nützlichen High-Tech-Gerätschaften aus. Gemeinsam sind sie von nun an die "Big Hero 6"...

Trailer

Release Media Infos

General
Unique ID                                : 223315239832237010069609184115801094387 (0xA800F363E638185CCFEF79C0665678F3)
Complete name                            : Baymax.Riesiges.Robowabohu.2014.GERMAN.DUBBED.DL.2160p.WEB-DL.x264-NIMA4K.mkv
Format                                   : Matroska
Format version                           : Version 4 / Version 2
File size                                : 29.2 GiB
Duration                                 : 1h 41mn
Overall bit rate mode                    : Variable
Overall bit rate                         : 41.0 Mbps
Movie name                               : LTN
Encoded date                             : UTC 2016-02-20 18:25:23
Writing application                      : mkvmerge v7.3.0 ('Nouages') 64bit built on Oct 23 2014 13:14:01
Writing library                          : libebml v1.3.0 + libmatroska v1.4.1
DURATION                                 : 01:41:52.768000000
NUMBER_OF_FRAMES                         : 191024
NUMBER_OF_BYTES                          : 293412864
_STATISTICS_WRITING_APP                  : mkvmerge v7.3.0 ('Nouages') 64bit built on Oct 23 2014 13:14:01
_STATISTICS_WRITING_DATE_UTC             : 2016-02-20 18:25:23
_STATISTICS_TAGS                         : BPS DURATION NUMBER_OF_FRAMES NUMBER_OF_BYTES

Video
ID                                       : 1
Format                                   : AVC
Format/Info                              : Advanced Video Codec
Format profile                           : [email protected]
Format settings, CABAC                   : Yes
Format settings, ReFrames                : 3 frames
Codec ID                                 : V_MPEG4/ISO/AVC
Duration                                 : 1h 41mn
Bit rate mode                            : Variable
Bit rate                                 : 39.8 Mbps
Maximum bit rate                         : 41.2 Mbps
Width                                    : 3 840 pixels
Height                                   : 2 160 pixels
Display aspect ratio                     : 16:9
Frame rate mode                          : Constant
Frame rate                               : 23.976 fps
Standard                                 : PAL
Color space                              : YUV
Chroma subsampling                       : 4:2:0
Bit depth                                : 8 bits
Scan type                                : Progressive
Bits/(Pixel*Frame)                       : 0.200
Stream size                              : 28.3 GiB (97%)
Language                                 : English
Default                                  : Yes
Forced                                   : No
Color primaries                          : BT.709
Transfer characteristics                 : BT.709
Matrix coefficients                      : BT.709

Audio
ID                                       : 2
Format                                   : AC-3
Format/Info                              : Audio Coding 3
Mode extension                           : CM (complete main)
Format settings, Endianness              : Big
Codec ID                                 : A_AC3
Duration                                 : 1h 41mn
Bit rate mode                            : Constant
Bit rate                                 : 384 Kbps
Channel(s)                               : 6 channels
Channel positions                        : Front: L C R, Side: L R, LFE
Sampling rate                            : 48.0 KHz
Bit depth                                : 16 bits
Compression mode                         : Lossy
Stream size                              : 280 MiB (1%)
Language                                 : German
Default                                  : Yes
Forced                                   : Yes

Passwort: NIMA4K
Hoster: Share-Online, Rapidgator

Kommentare (0)

Bitte nutze die Kommentierfunktion ausschließlich für Releasespezifische Kommentare! Alles weitere kann gern in der Shoutbox oder im Forum diskutiert werden.

Kommentar schreiben

Du bist nicht eingeloggt! Bitte registriere Dich hier, um einen Kommentar zu schreiben. Falls Du bereits einen Account hast, kannst du dich hier einloggen.
Noch keine Kommentare vorhanden. Schreibe den ersten Kommentar!