Your first Source for 4K-Releases

Video.Game.Show-The.Witcher.3.Wild.Hunt.Concert.2160p.GOG.WEB-DL.AAC2.0.H.264-Scoiatael

Video Game Show - The Witcher 3 Wild Hunt Concert Video.Game.Show-The.Witcher.3.Wild.Hunt.Concert.2160p.GOG.WEB-DL.AAC2.0.H.264-Scoiatael

Eingetragen am 15.08.2017 um 01:52 Uhr

  • Größe 19,70 GB
  • Codec AVC x264
  • Source Web-DL
  • Sprache English AAC 2.0
  • Auflösung 3840x2160
  • Laufzeit 1 Stunde 28 Minuten
  • Bitrate 31,40 Mb/s

Experience the award winning music of The Witcher 3: Wild Hunt and both its expansions, Hearts of Stone & Blood Wine, in a never before seen way, performed live during Film Music Festival 2016 in Kraków, Poland.
Video Game Show — The Witcher 3: Wild Hunt concert was organized by CD PROJEKT RED in cooperation with Kraków Festival Office.
The Witcher 3: Wild Hunt Suite
00:00:30 - Geralt of Rivia
00:01:50 - Eredin, King of the Hunt
00:04:13 - Commanding the Fury
00:06:23 - Wake Up, Ciri
00:07:58 - The Wolf and the Swallow
00:10:30 - Fate Calls
00:12:29 - Farewell, Old Friend
00:15:25 - Ladies of the Woods
00:17:52 - Spikeroog
00:20:56 - Bonny at Morn
00:23:28 - On Thin Ice
00:25:51 - Witch Hunters
00:28:29 - The Tree We Sat Once
00:31:05 - I Name Thee Dea and Embrace Thee as My Daughter
00:32:23 - King's Bran Final Voyage
00:34:35 - Welcome, Imlerith
00:37:21 - The Hunt is Coming
00:39:25 - Kaer Morhen
00:41:57 - Aen Seidhe
00:45:11 - Silver for Monsters
00:47:22 - Geralt of Rivia (reprise)
The Witcher 3: Wild Hunt — Hearts of Stone Suite
00:50:05 - Hearts of Stone
00:53:03 - Mystery Man
00:55:40 - The Temple of Lilvani
00:58:00 - A Gifted Man Brings Gifts Galore
The Witcher 3: Wild Hunt — Blood and Wine Suite
01:02:20 - Blood and Wine
01:05:20 - The Banks of the Sansretour
01:09:18 - Fanfares and Flowers
01:12:30 - Lady of the Lake
01:13:42 - The Slopes of the Blessure
01:15:58 - Beyond Hill and Dale...
01:19:02 - The Moon Over Mount Gorgon
01:21:04 - Tesham Mutna
01:23:15 - Lullaby of Woe

Trailer

Release Media Infos

General
Unique ID                                : 182318452639587009658744465164948446241 (0x892941B96775BF7EA507CF24DE0F9C21)
Complete name                            : Video.Game.Show-The.Witcher.3.Wild.Hunt.Concert.2160p.GOG.WEB-DL.AAC2.0.H.264-Scoiatael.mkv
Format                                   : Matroska
Format version                           : Version 4 / Version 2
File size                                : 19.7 GiB
Duration                                 : 1 h 28 min
Overall bit rate                         : 31.7 Mb/s
Encoded date                             : UTC 2017-08-07 13:12:25
Writing application                      : mkvmerge v14.0.0 ('Flow') 64bit
Writing library                          : libebml v1.3.4 + libmatroska v1.4.5

Video
ID                                       : 1
Format                                   : AVC
Format/Info                              : Advanced Video Codec
Format profile                           : [email protected]
Format settings, CABAC                   : Yes
Format settings, RefFrames               : 3 frames
Codec ID                                 : V_MPEG4/ISO/AVC
Duration                                 : 1 h 28 min
Bit rate                                 : 31.4 Mb/s
Width                                    : 3 840 pixels
Height                                   : 2 160 pixels
Display aspect ratio                     : 16:9
Frame rate mode                          : Constant
Frame rate                               : 25.000 FPS
Standard                                 : PAL
Color space                              : YUV
Chroma subsampling                       : 4:2:0
Bit depth                                : 8 bits
Scan type                                : Progressive
Bits/(Pixel*Frame)                       : 0.151
Stream size                              : 19.5 GiB (99%)
Language                                 : English
Default                                  : Yes
Forced                                   : No
Color range                              : Limited
Color primaries                          : BT.709
Transfer characteristics                 : BT.709
Matrix coefficients                      : BT.709

Audio
ID                                       : 2
Format                                   : AAC
Format/Info                              : Advanced Audio Codec
Format profile                           : LC
Codec ID                                 : A_AAC
Duration                                 : 1 h 28 min
Bit rate                                 : 317 kb/s
Channel(s)                               : 2 channels
Channel positions                        : Front: L R
Sampling rate                            : 48.0 kHz
Frame rate                               : 46.875 FPS (1024 SPF)
Compression mode                         : Lossy
Stream size                              : 201 MiB (1%)
Language                                 : English
Default                                  : Yes
Forced                                   : No

Menu
00:00:00.000                             : en:The Wticher 3: Wild Hunt Concert Opening
00:00:30.000                             : en:Geralt of Rivia
00:01:50.000                             : en:Eredin, King of the Hunt
00:04:13.000                             : en:Commanding the Fury
00:06:23.000                             : en:Wake Up, Ciri
00:07:58.000                             : en:The Wolf and the Swallow
00:10:30.000                             : en:Fate Calls
00:12:29.000                             : en:Farewell, Old Friend
00:15:25.000                             : en:Ladies of the Woods
00:17:52.000                             : en:Spikeroog
00:20:56.000                             : en:Bonny at Morn
00:23:28.000                             : en:On Thin Ice
00:25:51.000                             : en:Witch Hunters
00:28:29.000                             : en:The Tree We Sat Once
00:31:05.000                             : en:I Name Thee Dea and Embrace Thee as My Daughter
00:32:23.000                             : en:King's Bran Final Voyage
00:34:35.000                             : en:Welcome, Imlerith
00:37:21.000                             : en:The Hunt is Coming
00:39:25.000                             : en:Kaer Morhen
00:41:57.000                             : en:Aen Seidhe
00:45:11.000                             : en:Silver for Monsters
00:47:22.000                             : en:Geralt of Rivia (reprise)
00:50:05.000                             : en:Hearts of Stone
00:53:03.000                             : en:Mystery Man
00:55:40.000                             : en:The Temple of Lilvani
00:58:00.000                             : en:A Gifted Man Brings Gifts Galore
01:02:20.000                             : en:Blood and Wine
01:05:20.000                             : en:The Banks of the Sansretour
01:09:18.000                             : en:Fanfares and Flowers
01:12:30.000                             : en:Lady of the Lake
01:13:42.000                             : en:The Slopes of the Blessure
01:15:58.000                             : en:Beyond Hill and Dale...
01:19:02.000                             : en:The Moon Over Mount Gorgon
01:21:04.000                             : en:Tesham Mutna
01:23:15.000                             : en:Lullaby of Woe
01:25:39.000                             : en:The Wticher 3: Wild Hunt Concert Closing


Passwort: NIMA4K
Hoster: Share-Online, Rapidgator

Kommentare (0)

Bitte nutze die Kommentierfunktion ausschließlich für Releasespezifische Kommentare! Alles weitere kann gern in der Shoutbox oder im Forum diskutiert werden.

Kommentar schreiben

Du bist nicht eingeloggt! Bitte registriere Dich hier, um einen Kommentar zu schreiben. Falls Du bereits einen Account hast, kannst du dich hier einloggen.
Noch keine Kommentare vorhanden. Schreibe den ersten Kommentar!