Your first Source for 4K-Releases

Teenage.Mutant.Ninja.Turtles.2016.German.Dubbed.DTSHD.DL.UltraHD.BluRay.2160p.HEVC.BT2020.HDR.x265-NCPX

Teenage Mutant Ninja Turtles: Out of the Shadows (2016) (HDR) Teenage.Mutant.Ninja.Turtles.2016.German.Dubbed.DTSHD.DL.UltraHD.BluRay.2160p.HEVC.BT2020.HDR.x265-NCPX

Eingetragen am 22.11.2016 um 12:18 Uhr

  • Größe 54,40 GB
  • Codec HEVC x265
  • Source Ultra HD Blu-Ray
  • Sprache Deutsch DTS HD 5.1, English TrueHD Atmos 7.1
  • Auflösung 3840x2160
  • Laufzeit 1 Stunde 52 Minuten
  • Bitrate 60,50 Mb/s

Die coole Heldentruppe um Leonardo und seine Brüder Raphael, Michelangelo und Donatello stellt sich im neuen Blockbuster-Abenteuer natürlich wieder dem Kampf gegen das Böse: Erzfeind Shredder hetzt den Kultschildkröten seine Kampf-Mutanten Bebop und Rocksteady auf den Panzer. Während sich die Turtles in Topform bringen, um es mit Shredder und seiner neuen Gang aufnehmen zu können, stehen sie plötzlich und ohne Vorwarnung einem viel bösartigeren Gegner gegenüber: dem berühmt-berüchtigten Krang. Doch die vier grünen Helden bekommen Unterstützung von Casey Jones, den nur ein Lächeln von April O'Neil in die Knie zwingen kann. Mit vereinter Turtlepower mischen die sechs ihre Gegner mächtig auf - mit noch mehr Witz, Coolness und spektakulären Action-Szenen.

Trailer

Release Media Infos

General
Unique ID                                : 181621100889125619240879711914593653837 (0x88A2F3A0DFC62B43A3BD73CDCDA8944D)
Complete name                            : Teenage.Mutant.Ninja.Turtles.2016.German.Dubbed.DTSHD.DL.UltraHD.BluRay.2160p.HEVC.BT2020.HDR.x265-NCPX.mkv
Format                                   : Matroska
Format version                           : Version 4 / Version 2
File size                                : 54.5 GiB
Duration                                 : 1h 52mn
Overall bit rate mode                    : Variable
Overall bit rate                         : 69.5 Mbps
Encoded date                             : UTC 2016-11-19 21:43:16
Writing application                      : mkvmerge v9.4.2 ('So High') 64bit
Writing library                          : libebml v1.3.4 + libmatroska v1.4.5

Video
ID                                       : 1
Format                                   : HEVC
Format/Info                              : High Efficiency Video Coding
Format profile                           : Main [email protected]@High
Codec ID                                 : V_MPEGH/ISO/HEVC
Duration                                 : 1h 52mn
Bit rate                                 : 60.5 Mbps
Width                                    : 3 840 pixels
Height                                   : 2 160 pixels
Display aspect ratio                     : 16:9
Frame rate mode                          : Constant
Frame rate                               : 23.976 (24000/1001) fps
Color space                              : YUV
Chroma subsampling                       : 4:2:0
Bit depth                                : 10 bits
Bits/(Pixel*Frame)                       : 0.304
Stream size                              : 47.4 GiB (87%)
Writing library                          : x265 2.0+18-b0ec268aef60:[Windows][GCC 6.1.0][64 bit] 10bit
Encoding settings                        : wpp / ctu=64 / min-cu-size=8 / max-tu-size=32 / tu-intra-depth=1 / tu-inter-depth=1 / me=1 / subme=2 / merange=57 / no-rect / no-amp / max-merge=2 / temporal-mvp / no-early-skip / rskip / rdpenalty=0 / no-tskip / no-tskip-fast / strong-intra-smoothing / no-lossless / no-cu-lossless / no-constrained-intra / no-fast-intra / open-gop / no-temporal-layers / interlace=0 / keyint=250 / min-keyint=23 / scenecut=40 / rc-lookahead=20 / lookahead-slices=8 / bframes=4 / bframe-bias=0 / b-adapt=2 / ref=3 / limit-refs=3 / no-limit-modes / weightp / no-weightb / aq-mode=1 / qg-size=32 / aq-strength=1.00 / cbqpoffs=0 / crqpoffs=0 / rd=3 / psy-rd=2.00 / rdoq-level=0 / psy-rdoq=0.00 / log2-max-poc-lsb=8 / no-rd-refine / signhide / deblock=0:0 / sao / no-sao-non-deblock / b-pyramid / cutree / no-intra-refresh / rc=abr / bitrate=61000 / qcomp=0.60 / qpmin=0 / qpmax=69 / qpstep=4 / vbv-maxrate=160000 / vbv-bufsize=160000 / ipratio=1.40 / pbratio=1.30
Default                                  : Yes
Forced                                   : Yes
Color range                              : Limited
Color primaries                          : BT.2020
Transfer characteristics                 : SMPTE ST 2084
Matrix coefficients                      : BT.2020 non-constant
Mastering display color primaries        : R: x=0.680000 y=0.320000, G: x=0.265000 y=0.690000, B: x=0.150000 y=0.060000, White point: x=0.312700 y=0.329000
Mastering display luminance              : min: 0.0001 cd/m2, max: 1000.0000 cd/m2
Maximum Content Light Level              : 1000 cd/m2
Maximum Frame-Average Light Level        : 500 cd/m2

Audio #1
ID                                       : 2
Format                                   : DTS
Format/Info                              : Digital Theater Systems
Format profile                           : HRA / Core
Mode                                     : 16
Format settings, Endianness              : Big
Codec ID                                 : A_DTS
Duration                                 : 1h 52mn
Bit rate mode                            : Constant
Bit rate                                 : 3 840 Kbps / 1 509 Kbps
Channel(s)                               : 6 channels
Channel positions                        : Front: L C R, Side: L R, LFE
Sampling rate                            : 48.0 KHz
Frame rate                               : 93.750 fps (512 spf)
Bit depth                                : 24 bits
Compression mode                         : Lossy
Delay relative to video                  : 1s 600ms
Stream size                              : 3.01 GiB (6%)
Language                                 : German
Default                                  : Yes
Forced                                   : Yes

Audio #2
ID                                       : 3
Format                                   : Atmos / TrueHD
Codec ID                                 : A_TRUEHD
Duration                                 : 1h 52mn
Bit rate mode                            : Variable
Bit rate                                 : 5 081 Kbps
Maximum bit rate                         : 8 040 Kbps
Channel(s)                               : Object Based / 8 channels
Channel positions                        : Object Based / Front: L C R, Side: L R, Back: L R, LFE
Sampling rate                            :  / 48.0 KHz
Frame rate                               : 1 200.000 fps (40 spf)
Compression mode                         : Lossless
Delay relative to video                  : 1s 600ms
Stream size                              : 3.98 GiB (7%)
Title                                    : English TrueHD Atmos 7.1
Language                                 : English
Default                                  : No
Forced                                   : No

Text #1
ID                                       : 4
Format                                   : UTF-8
Codec ID                                 : S_TEXT/UTF8
Codec ID/Info                            : UTF-8 Plain Text
Duration                                 : 1h 2mn
Bit rate                                 : 0 bps
Count of elements                        : 14
Stream size                              : 242 Bytes (0%)
Title                                    : German Forced
Language                                 : German
Default                                  : Yes
Forced                                   : Yes

Text #2
ID                                       : 5
Format                                   : PGS
Muxing mode                              : zlib
Codec ID                                 : S_HDMV/PGS
Codec ID/Info                            : Picture based subtitle format used on BDs/HD-DVDs
Duration                                 : 1h 42mn
Bit rate                                 : 12.3 Kbps
Count of elements                        : 3016
Stream size                              : 9.06 MiB (0%)
Title                                    : English
Language                                 : English
Default                                  : No
Forced                                   : No

Text #3
ID                                       : 6
Format                                   : PGS
Muxing mode                              : zlib
Codec ID                                 : S_HDMV/PGS
Codec ID/Info                            : Picture based subtitle format used on BDs/HD-DVDs
Duration                                 : 1h 50mn
Bit rate                                 : 11.4 Kbps
Count of elements                        : 3054
Stream size                              : 9.06 MiB (0%)
Title                                    : German
Language                                 : German
Default                                  : No
Forced                                   : No


General
Unique ID                                : 181621100889125619240879711914593653837 (0x88A2F3A0DFC62B43A3BD73CDCDA8944D)
Complete name                            : Teenage.Mutant.Ninja.Turtles.2016.German.Dubbed.DTSHD.DL.UltraHD.BluRay.2160p.HEVC.BT2020.HDR.x265-NCPX.mkv
Format                                   : Matroska
Format version                           : Version 4 / Version 2
File size                                : 54.5 GiB
Duration                                 : 1h 52mn
Overall bit rate mode                    : Variable
Overall bit rate                         : 69.5 Mbps
Encoded date                             : UTC 2016-11-19 21:43:16
Writing application                      : mkvmerge v9.4.2 ('So High') 64bit
Writing library                          : libebml v1.3.4 + libmatroska v1.4.5

Video
ID                                       : 1
Format                                   : HEVC
Format/Info                              : High Efficiency Video Coding
Format profile                           : Main [email protected]@High
Codec ID                                 : V_MPEGH/ISO/HEVC
Duration                                 : 1h 52mn
Bit rate                                 : 60.5 Mbps
Width                                    : 3 840 pixels
Height                                   : 2 160 pixels
Display aspect ratio                     : 16:9
Frame rate mode                          : Constant
Frame rate                               : 23.976 (24000/1001) fps
Color space                              : YUV
Chroma subsampling                       : 4:2:0
Bit depth                                : 10 bits
Bits/(Pixel*Frame)                       : 0.304
Stream size                              : 47.4 GiB (87%)
Writing library                          : x265 2.0+18-b0ec268aef60:[Windows][GCC 6.1.0][64 bit] 10bit
Encoding settings                        : wpp / ctu=64 / min-cu-size=8 / max-tu-size=32 / tu-intra-depth=1 / tu-inter-depth=1 / me=1 / subme=2 / merange=57 / no-rect / no-amp / max-merge=2 / temporal-mvp / no-early-skip / rskip / rdpenalty=0 / no-tskip / no-tskip-fast / strong-intra-smoothing / no-lossless / no-cu-lossless / no-constrained-intra / no-fast-intra / open-gop / no-temporal-layers / interlace=0 / keyint=250 / min-keyint=23 / scenecut=40 / rc-lookahead=20 / lookahead-slices=8 / bframes=4 / bframe-bias=0 / b-adapt=2 / ref=3 / limit-refs=3 / no-limit-modes / weightp / no-weightb / aq-mode=1 / qg-size=32 / aq-strength=1.00 / cbqpoffs=0 / crqpoffs=0 / rd=3 / psy-rd=2.00 / rdoq-level=0 / psy-rdoq=0.00 / log2-max-poc-lsb=8 / no-rd-refine / signhide / deblock=0:0 / sao / no-sao-non-deblock / b-pyramid / cutree / no-intra-refresh / rc=abr / bitrate=61000 / qcomp=0.60 / qpmin=0 / qpmax=69 / qpstep=4 / vbv-maxrate=160000 / vbv-bufsize=160000 / ipratio=1.40 / pbratio=1.30
Default                                  : Yes
Forced                                   : Yes
Color range                              : Limited
Color primaries                          : BT.2020
Transfer characteristics                 : SMPTE ST 2084
Matrix coefficients                      : BT.2020 non-constant
Mastering display color primaries        : R: x=0.680000 y=0.320000, G: x=0.265000 y=0.690000, B: x=0.150000 y=0.060000, White point: x=0.312700 y=0.329000
Mastering display luminance              : min: 0.0001 cd/m2, max: 1000.0000 cd/m2
Maximum Content Light Level              : 1000 cd/m2
Maximum Frame-Average Light Level        : 500 cd/m2

Audio #1
ID                                       : 2
Format                                   : DTS
Format/Info                              : Digital Theater Systems
Format profile                           : HRA / Core
Mode                                     : 16
Format settings, Endianness              : Big
Codec ID                                 : A_DTS
Duration                                 : 1h 52mn
Bit rate mode                            : Constant
Bit rate                                 : 3 840 Kbps / 1 509 Kbps
Channel(s)                               : 6 channels
Channel positions                        : Front: L C R, Side: L R, LFE
Sampling rate                            : 48.0 KHz
Frame rate                               : 93.750 fps (512 spf)
Bit depth                                : 24 bits
Compression mode                         : Lossy
Delay relative to video                  : 1s 600ms
Stream size                              : 3.01 GiB (6%)
Language                                 : German
Default                                  : Yes
Forced                                   : Yes

Audio #2
ID                                       : 3
Format                                   : Atmos / TrueHD
Codec ID                                 : A_TRUEHD
Duration                                 : 1h 52mn
Bit rate mode                            : Variable
Bit rate                                 : 5 081 Kbps
Maximum bit rate                         : 8 040 Kbps
Channel(s)                               : Object Based / 8 channels
Channel positions                        : Object Based / Front: L C R, Side: L R, Back: L R, LFE
Sampling rate                            :  / 48.0 KHz
Frame rate                               : 1 200.000 fps (40 spf)
Compression mode                         : Lossless
Delay relative to video                  : 1s 600ms
Stream size                              : 3.98 GiB (7%)
Title                                    : English TrueHD Atmos 7.1
Language                                 : English
Default                                  : No
Forced                                   : No

Text #1
ID                                       : 4
Format                                   : UTF-8
Codec ID                                 : S_TEXT/UTF8
Codec ID/Info                            : UTF-8 Plain Text
Duration                                 : 1h 2mn
Bit rate                                 : 0 bps
Count of elements                        : 14
Stream size                              : 242 Bytes (0%)
Title                                    : German Forced
Language                                 : German
Default                                  : Yes
Forced                                   : Yes

Text #2
ID                                       : 5
Format                                   : PGS
Muxing mode                              : zlib
Codec ID                                 : S_HDMV/PGS
Codec ID/Info                            : Picture based subtitle format used on BDs/HD-DVDs
Duration                                 : 1h 42mn
Bit rate                                 : 12.3 Kbps
Count of elements                        : 3016
Stream size                              : 9.06 MiB (0%)
Title                                    : English
Language                                 : English
Default                                  : No
Forced                                   : No

Text #3
ID                                       : 6
Format                                   : PGS
Muxing mode                              : zlib
Codec ID                                 : S_HDMV/PGS
Codec ID/Info                            : Picture based subtitle format used on BDs/HD-DVDs
Duration                                 : 1h 50mn
Bit rate                                 : 11.4 Kbps
Count of elements                        : 3054
Stream size                              : 9.06 MiB (0%)
Title                                    : German
Language                                 : German
Default                                  : No
Forced                                   : No

Passwort: NIMA4K
Hoster: Share-online, Uploaded

Kommentare (5)

Bitte nutze die Kommentierfunktion ausschließlich für Releasespezifische Kommentare! Alles weitere kann gern in der Shoutbox oder im Forum diskutiert werden.

Kommentar schreiben

Offlinedateien werden vom System automatisch erkannt und der Reupload angestoßen. Schau am besten in ein paar Stunden wieder rein :)
CAPTCHA Image

blackpanther 02.12.2016 - 18:13 Uhr

ich habe bei den film ein entpackungs Problem ! bitte um Hilfe

dayo 26.11.2016 - 16:26 Uhr

Tolle arbeit,aber die letzte std (ungefähr) leider nicht synchron

irgend 22.11.2016 - 19:22 Uhr

echt jetzt? echtes HDR und BT2020 via Capture? Das wär ja was :)

Kraenk 22.11.2016 - 12:44 Uhr

Hey, ich nochmals :D.
Das ist nun ja das neue, muss das doch bestimmt auch wieder mit dem Alten (
https://nima4k.org/release/1155/teenage-mutant-ninja-turtles-out-of-the-shadows-2016-german-dubbed-ac3-dl-2160p-ultra-hd-bluray-10bit-x265-nima4k
)
ersetzen oder?
Wegen der Qualität etc.?
Danke für die Top Uploads :).

Greetz