Your first Source for 4K-Releases

Central.Intelligence.2016.Unrated.UltraHD.BluRay.2160p.HEVC.BT2020.HDR.German.Dubbed.DTSHD.DL.x265-NCPX

Central Intelligence (Unrated) (2016) (HDR) Central.Intelligence.2016.Unrated.UltraHD.BluRay.2160p.HEVC.BT2020.HDR.German.Dubbed.DTSHD.DL.x265-NCPX

Eingetragen am 21.11.2016 um 13:52 Uhr

  • Größe 55,70 GB
  • Codec HEVC x265
  • Source Ultra HD Blu-Ray
  • Sprache Deutsch DTS HD 5.1, Englisch DTS HD 5.1
  • Auflösung 3840x2160
  • Laufzeit 1 Stunde 56 Minuten
  • Bitrate 60,90 Mb/s

Einst war er in der Schule der Nerd, auf dem alle herumgehackt haben, doch nun feiert Bob (Dwayne Johnson) beim Klassentreffen als skrupelloser CIA-Agent eine triumphale Rückkehr. Für einen vermeintlich streng geheimen Fall rekrutiert er dort einen ehemaligen Klassenkameraden (Kevin Hart), der früher den Schulhof im Griff hatte und noch heute, wenn auch als Buchhalter, von seinen glorreichen Tagen träumt. Doch worauf er sich eingelassen hat, merkt der seriöse Schreibtischtäter erst, als sein unberechenbarer neuer Freund ihn längst in ein bleihaltiges Spionage-Abenteuer verwickelt hat.

Trailer

Release Media Infos

General
Unique ID                                : 246586099738470171726475279714746405052 (0xB982C15DAC79BBE688D0E8BF76E090BC)
Complete name                            : Central.Intelligence.2016.Unrated.UltraHD.BluRay.2160p.HEVC.BT2020.HDR.German.Dubbed.DTSHD.DL.x265-NCPX.mkv
Format                                   : Matroska
Format version                           : Version 4 / Version 2
File size                                : 55.7 GiB
Duration                                 : 1h 56mn
Overall bit rate                         : 68.5 Mbps
Encoded date                             : UTC 2016-11-17 17:07:30
Writing application                      : mkvmerge v9.4.2 ('So High') 64bit
Writing library                          : libebml v1.3.4 + libmatroska v1.4.5

Video
ID                                       : 1
Format                                   : HEVC
Format/Info                              : High Efficiency Video Coding
Format profile                           : Main [email protected]@High
Codec ID                                 : V_MPEGH/ISO/HEVC
Duration                                 : 1h 56mn
Bit rate                                 : 60.9 Mbps
Width                                    : 3 840 pixels
Height                                   : 2 160 pixels
Display aspect ratio                     : 16:9
Frame rate mode                          : Constant
Frame rate                               : 23.976 (24000/1001) fps
Color space                              : YUV
Chroma subsampling                       : 4:2:0
Bit depth                                : 10 bits
Bits/(Pixel*Frame)                       : 0.306
Stream size                              : 49.6 GiB (89%)
Writing library                          : x265 2.0+18-b0ec268aef60:[Windows][GCC 6.1.0][64 bit] 10bit
Encoding settings                        : wpp / ctu=64 / min-cu-size=8 / max-tu-size=32 / tu-intra-depth=1 / tu-inter-depth=1 / me=1 / subme=2 / merange=57 / no-rect / no-amp / max-merge=2 / temporal-mvp / no-early-skip / rskip / rdpenalty=0 / no-tskip / no-tskip-fast / strong-intra-smoothing / no-lossless / no-cu-lossless / no-constrained-intra / no-fast-intra / open-gop / no-temporal-layers / interlace=0 / keyint=250 / min-keyint=23 / scenecut=40 / rc-lookahead=20 / lookahead-slices=8 / bframes=4 / bframe-bias=0 / b-adapt=2 / ref=3 / limit-refs=3 / no-limit-modes / weightp / no-weightb / aq-mode=1 / qg-size=32 / aq-strength=1.00 / cbqpoffs=0 / crqpoffs=0 / rd=3 / psy-rd=2.00 / rdoq-level=0 / psy-rdoq=0.00 / log2-max-poc-lsb=8 / no-rd-refine / signhide / deblock=0:0 / sao / no-sao-non-deblock / b-pyramid / cutree / no-intra-refresh / rc=abr / bitrate=61000 / qcomp=0.60 / qpmin=0 / qpmax=69 / qpstep=4 / vbv-maxrate=160000 / vbv-bufsize=160000 / ipratio=1.40 / pbratio=1.30
Default                                  : Yes
Forced                                   : Yes
Color range                              : Limited
Color primaries                          : BT.2020
Transfer characteristics                 : SMPTE ST 2084
Matrix coefficients                      : BT.2020 non-constant
Mastering display color primaries        : R: x=0.680000 y=0.320000, G: x=0.265000 y=0.690000, B: x=0.150000 y=0.060000, White point: x=0.312700 y=0.329000
Mastering display luminance              : min: 0.0001 cd/m2, max: 1000.0000 cd/m2
Maximum Content Light Level              : 1000 cd/m2
Maximum Frame-Average Light Level        : 500 cd/m2

Audio #1
ID                                       : 2
Format                                   : DTS
Format/Info                              : Digital Theater Systems
Format profile                           : HRA / Core
Mode                                     : 16
Format settings, Endianness              : Big
Codec ID                                 : A_DTS
Duration                                 : 1h 56mn
Bit rate mode                            : Constant
Bit rate                                 : 3 840 Kbps / 1 509 Kbps
Channel(s)                               : 6 channels
Channel positions                        : Front: L C R, Side: L R, LFE
Sampling rate                            : 48.0 KHz
Frame rate                               : 93.750 fps (512 spf)
Bit depth                                : 24 bits
Compression mode                         : Lossy
Delay relative to video                  : 5ms
Stream size                              : 3.12 GiB (6%)
Language                                 : German
Default                                  : Yes
Forced                                   : Yes

Audio #2
ID                                       : 3
Format                                   : DTS
Format/Info                              : Digital Theater Systems
Format profile                           : MA / Core
Mode                                     : 16
Format settings, Endianness              : Big
Codec ID                                 : A_DTS
Duration                                 : 1h 56mn
Bit rate mode                            : Variable / Constant
Bit rate                                 : 3 694 Kbps / 1 509 Kbps
Channel(s)                               : 6 channels
Channel positions                        : Front: L C R, Side: L R, LFE
Sampling rate                            : 48.0 KHz
Frame rate                               : 93.750 fps (512 spf)
Bit depth                                : 24 bits
Compression mode                         : Lossless / Lossy
Delay relative to video                  : 9ms
Stream size                              : 3.00 GiB (5%)
Language                                 : English
Default                                  : No
Forced                                   : No

Text #1
ID                                       : 4
Format                                   : UTF-8
Codec ID                                 : S_TEXT/UTF8
Codec ID/Info                            : UTF-8 Plain Text
Duration                                 : 1h 45mn
Bit rate                                 : 0 bps
Count of elements                        : 13
Stream size                              : 293 Bytes (0%)
Title                                    : German Forced
Language                                 : German
Default                                  : Yes
Forced                                   : Yes

Text #2
ID                                       : 5
Format                                   : PGS
Muxing mode                              : zlib
Codec ID                                 : S_HDMV/PGS
Codec ID/Info                            : Picture based subtitle format used on BDs/HD-DVDs
Duration                                 : 1h 55mn
Bit rate                                 : 12.7 Kbps
Count of elements                        : 3434
Stream size                              : 10.4 MiB (0%)
Title                                    : German
Language                                 : German
Default                                  : No
Forced                                   : No

Text #3
ID                                       : 6
Format                                   : VobSub
Muxing mode                              : zlib
Codec ID                                 : S_VOBSUB
Codec ID/Info                            : Picture based subtitle format used on DVDs
Duration                                 : 1h 55mn
Bit rate                                 : 6 358 bps
Count of elements                        : 1717
Stream size                              : 5.24 MiB (0%)
Title                                    : German
Language                                 : German
Default                                  : No
Forced                                   : No

Text #4
ID                                       : 7
Format                                   : PGS
Muxing mode                              : zlib
Codec ID                                 : S_HDMV/PGS
Codec ID/Info                            : Picture based subtitle format used on BDs/HD-DVDs
Duration                                 : 1h 55mn
Bit rate                                 : 104 bps
Count of elements                        : 104
Stream size                              : 88.0 KiB (0%)
Title                                    : German
Language                                 : German
Default                                  : No
Forced                                   : No

Text #5
ID                                       : 8
Format                                   : VobSub
Muxing mode                              : zlib
Codec ID                                 : S_VOBSUB
Codec ID/Info                            : Picture based subtitle format used on DVDs
Duration                                 : 1h 55mn
Bit rate                                 : 51 bps
Count of elements                        : 15
Stream size                              : 43.2 KiB (0%)
Title                                    : German
Language                                 : German
Default                                  : No
Forced                                   : No

Passwort: NIMA4K
Hoster: Share-online, Uploaded

Kommentare (20)

Bitte nutze die Kommentierfunktion ausschließlich für Releasespezifische Kommentare! Alles weitere kann gern in der Shoutbox oder im Forum diskutiert werden.

Kommentar schreiben

Du bist nicht eingeloggt! Bitte registriere Dich hier, um einen Kommentar zu schreiben. Falls Du bereits einen Account hast, kannst du dich hier einloggen.

ShiN0bi 26.11.2016 - 13:10 Uhr

Also ich versteh nicht was manche hier schreiben. Ich hab nen LG HDR OLED TV 65 Zoll EF9509 und das BILD sieht mega geil aus. Hab die normale Version und die UHD HDR Version verglichen und es sieht geiler aus mit der HDR Version. Vielleicht habt ihr da die Bildeinstellungen noch nicht optimiert, zumindest mal auf Standard zurücksetzen, sieht auch sehr gut aus. Liebe Grüße David

Bang 23.11.2016 - 01:43 Uhr

@Alex
Du musst wahrscheinlich an deinen TV Settings ein bisschen rumspielen. Ich hab n Samsung KU6409 und bei mir war das Bild auch erst extrem hell und künstlich.
Hab dann bei den Settings den dynamischen Kontrast auf AUS gestellt und den Farbraum auf nativ und dann war das Bild super.

Peter Plan 22.11.2016 - 08:57 Uhr

@ ALEX ICH FINDE DAS HDR BILD ÜBERHAUPT NICHT SCHÖN UND BIN TOTAL DEINE MEINUNG UND LASSE DIE FINGER VON DIESEN ANGEBLICHEN HDR NICHT MAL WARCRAFT IN HDR SIEHT SO GUT AUS WIE WIE UHD MIT HDR HABE SIE GESTERN VERGLICHEN UND BIN DER MEINE DAS ES KEINE ECHTES HDR IST SONDER NUR EIN TIGGER DER ES AKTIV AM TV SCHALTET

Promo81 22.11.2016 - 06:43 Uhr

Wo ist denn mein Post? Hmmm....wurde nicht veröffentlicht :(
Schade!!! Hatte geschrieben gehabt das ich keine Probleme beim abspielen mit meinem q10pro gehabt habe. TV hat sofort das abspielen eines hdr Videos angezeigt und der unterschied war sofort zu sehen. Es wirkt heller die Farben sind kräftiger. Ich bin begeistert. Wenn das so sein soll dann super Arbeit Jungs und ein fettes Danke NIMA4K ;)

Fry 22.11.2016 - 00:17 Uhr

HDR Funktioniert super.

DER AFFE 22.11.2016 - 00:17 Uhr

Hi.

Sorry , hat doch HDR. hehe

Danke.

DER AFFE 22.11.2016 - 00:11 Uhr

HI

Hat kein Hdr.

alex 22.11.2016 - 00:02 Uhr

Hab jetzt mal die 4K version und 1080p auf dem Samsung UE75HU7080 abgespielt.
Also mir persöhnlich gefällt die 1080p variante da dort das Bild viel schöner aussieht.
Auf der 4k version sieht das Bild so aus as wäre die Helligkeit hoch eingestellt.
auf der 1080p sieht Kevin Hart normal aus und auf der 4k als hätte sich puder ins gesicht geschmiert haha.
Wäre cool wenn jemand so ein vergleichsbild zwischen HDR und nicht HDR hätte

Thug 21.11.2016 - 23:17 Uhr

@alex

Nein, ist es nicht.

Promo81 21.11.2016 - 22:54 Uhr

so ebend von der arbeit gekommen und meinen q10pro angeschmissen und ich muss sagen geiles bild :) erstens wird es heller und die farben kräftiger soweit ich es am anfang sehen konnte.der tv zeigt sofort an das ein hdr video wiedergeben wird.also läuft alles bombe*daumen hoch* ich denke mal aber um einen geilen hdr effekt zu sehen müsste ein anderer film abgespielt werden..so wie z.b. pacific rim oder independence day 2 oder so...aber das wird noch alles kommen....super arbeit von euch oder wem ich da gratulieren muss unter anderem NIMA4K ;)

bin sehr begeistert :)

alex 21.11.2016 - 21:42 Uhr

Jungs ist das jetzt ne 1:1 remux der UHD disk?

Hat das warten endlich ein ende wuhuuuu

gruss alex

tamie 21.11.2016 - 21:35 Uhr

In der nfo von NCPX steht "Use MPC HC Player for the best performance
with this Release on the PC !"

Läuft damit bei mir soweit auch ganz gut.

Crackz 21.11.2016 - 21:17 Uhr

@Godmax! Hab ne 1070er. Lt NVidia hat die 2.0b; kann also auch HDR. Ich kenn eben nur keinen Player der HDR kann. Sollts aber keinen geben werd ich wohl auf externe HDD zuückgreifen müssen.

Godmax 21.11.2016 - 20:36 Uhr

Hast du auch eine Grafikkarte mit HDMI 2.0a, bzw. 2.0b oder nur 2.0? 2.0 reicht wohl leider nicht. Manche TVs können direkt HDR Zeug verarbeiten oder halt der Q10Pro Mediaplayer.

Crackz 21.11.2016 - 19:44 Uhr

Gibt es eigentlich schon einen Player für den PC, welcher HDr "wiedergeben" kann?
Lt. Internet kann es der 5k-Player. Ich weiß jedoch nicht was ich von diesem Player halten soll. Und ansonsten fallen mir persönlich nur noch der Windows Media Player Classic mit K-Lite Codec Pack und der VLC Player ein. Diese können jedoch kein HDR wiedergeben so wie ich das mitbekommen habe. Habe HDR fähige Graka mit HDMI 2.0 mit 4kTV verbunden - deshalb frag ich, da ich mir dann die Kopiererei sparen könnte :)

Godmax 21.11.2016 - 16:49 Uhr

Ich werds nachher auch mal testen auf nem LG OLED, aber den ganzen Film schau ich mir nicht an, ist ein reiner HDR Test bei mir :)

Burnett 21.11.2016 - 16:32 Uhr

So gerade mal getestet. HDR wird vom TV erkannt und auch wiedergegeben. Er schaltet komplett um genau wie bei der Original UHD. Sieht genial aus. :)

Peter Plan 21.11.2016 - 15:31 Uhr

@doge
Die TVs ignorieren die hdr Meta Daten nicht..das klappt schon alles Ganz gut ..ist alles schon. Seit ca 1woche im Umlauf und in der Shoutbox schon lange besprochen. Und es sind immer noch nur analoge Aufnahmen und der hdr bringt da auch nicht viel mehr

Burnett 21.11.2016 - 15:28 Uhr

Ich teste das mal lade den mal schnell runter und dann ab in den Q10 pro. Ich berichte ebenfalls. ;)

Promo81 21.11.2016 - 15:11 Uhr

schade das die samples nur über uploaded zu verfügung gestellt werden...dann halt den kompletten film

Doge 21.11.2016 - 15:11 Uhr

Ich werd bekloppt :)
Sind Infos bekannt wie das zustande gekommen ist? Kann ja nur mit dem DeckLink 4K Recorder gegrabbed worden sein das Bild wenn die HDR Metadaten vorhanden sind (ist zumindest laut meinen Infos der einzige Grabber der auch die HDR Metadaten mitschneiden kann).

Konnte das denn schon jemand testen? Wie werden denn die HDR Daten hinterlegt im Container? Bzw. gibts was zu beachten beim abspielen? Kann mir gut vorstellen das TVs die Daten einfach mal ignorieren.

Promo81 21.11.2016 - 15:09 Uhr

das ist wirklich die frage,ich lade es gerade mal runter.werde heute nach der arbei es mir angucken...

burnett 21.11.2016 - 14:57 Uhr

Jetzt stellt sich folgende Frage: Ist diese Fassung mit HDR qualitativ genauso gut wie die Original UHD? Ich bezweifle das man die feinen Unterschiede mit dem Auge sehen kann. Denn wenn dem so ist, dann haben wir eine echte alternative zu den Original UHD´s und das warten auf die Ripper Programme kann einfach noch ein wenig mehr Zeit in Anspruch nehmen. :)

Promo81 21.11.2016 - 14:54 Uhr

Krasse scheiße, hdr? Jetzt wirklich....habt ihr/du es hingekriegt? Respekt...

Peter Plan 21.11.2016 - 13:53 Uhr

Ich danke dir