Your first Source for 4K-Releases

Hitman.Agent.47.2015.German.DTSD.7.1.ML.2160p.UHD-LameHD

Hitman: Agent 47 (2015) (LameHD) Hitman.Agent.47.2015.German.DTSD.7.1.ML.2160p.UHD-LameHD

Eingetragen am 05.11.2016 um 21:13 Uhr

  • Größe 50,60 GB
  • Codec HEVC x265
  • Source Ultra HD Blu-Ray
  • Sprache German DTS-HD 7.1, English DTS-HD 7.1 and more
  • Auflösung 3840x2160
  • Laufzeit 1 Stunde 36 Minuten
  • Bitrate 60,60 Mb/s

Der wortkarge, glatzköpfige Mann ist ein namensloser Auftragskiller, ein Hitman. Agent 47 wird er deshalb genannt, weil das die letzten zwei Zahlen des Barcodes sind, die er als Tätowierung hinten auf seinem Kopf trägt. Die Markierung kennzeichnet ihn als einen der genetisch veränderten Auftragsmörder, die zur absoluten Elite auf ihrem Gebiet gehören. Sein neuster Auftrag setzt Agent 47 auf eine junge Frau namens Katia van Dees an, die auf der Flucht ist. Anstatt sauber über die Bühne zu gehen, entpuppt sich die Mission jedoch als äußerst schwierig. Der sonst so routinierte Hitman wird mit Enthüllungen bezüglich seiner Vergangenheit konfrontiert, die mit seinem Opfer in unmittelbarem Zusammenhang stehen. Auf einmal gerät er selbst in Gefahr und muss sich gegen Gegner wie den gefährlichen John Smith zur Wehr setzen.

Hinweis:
Die neue DTS 7.1 Tonspur wurde von uns (LameHD) aus Englisch DTS-HD 7.1 und
Deutsch DTS 5.1 (Retail) erstellt (Source war die Deutsche und die Englische Bluray).
Dialoge stammen aus der Deutschen DTS und der Rest vom Englischen DTS-HD-Ton.
Des Weiteren wurden Lautstärke und EQ Anpassungen in den einzelnen Kanälen vorgenommen.

Download Deutsch DTS HD 7.1 LameHD-Tonspur:
Deutsch DTS HD 7.1 LameHD seperat ladbar: Extra Download

Hinweis 2:
Die Extra zum Download angebotene Deutsch DTS HD 7.1 LameHD-Tonspur funktioniert auch beim Hitman.Agent.47.2015.German.Dubbed.DTS.DL.2160p.Ultra.HD.BluRay.10bit.x265-NIMA4K Release.

Trailer

Release Media Infos

RESOLUTiON … : 3840 x 2160
Video ………….. : HEVC @ max. 60,6 Mbps | 23.976 fps (Source @ NIMA4K)
Audio 1……….. : German DTS-HD HR 7.1 @ 4992 Kbps
Audio 2……….. : German DTS 5.1 @ 768 kbps (Retail)
Audio 3……….. : English DTS-HD MA 7.1 @ 5308 Kbps
Audio 4……….. : French DTS 5.1 @ 768 kbps
Audio 5……….. : Italian DTS 5.1 @ 768 kbps
Audio 6……….. : Japanese DTS 5.1 @ 768 kbps
Audio 7……….. : Spanish DTS 5.1 @ 768 kbps
Audio 8……….. : Thai AC3 5.1 @ 448 kbps
Subs ………………… : German, English, Arabic, Italian, Indonesian, Dutch, Hindi, Thai, French, Japanese, Vietnamese
Chapter ………… : Yes

Die neue DTS 7.1 Tonspur wurde von uns (LameHD) aus Englisch DTS-HD 7.1 und
Deutsch DTaS 5.1 (Retail) erstellt (Source war die Deutsche und die Englische Bluray).
Dialoge stammen aus der Deutschen DTS und der Rest vom Englischen DTS-HD-Ton.
Des Weiteren wurden Lautstärke und EQ Anpassungen in den einzelnen Kanälen vorgenommen.


General 
Format : Matroska 
Format version : Version 2 
File size : 50.6 GiB 
Duration : 1h 36mn 
Overall bit rate : 75.3 Mbps 
Movie name : Hitman: Agent 47 
Writing application : mkvmerge v5.8.0 ('No Sleep / Pillow') built on Sep 2 2012 15:37:04 
Writing library : libebml v1.2.3 + libmatroska v1.3.0 

Video 
ID : 1 
Format : HEVC 
Format/Info : High Efficiency Video Coding 
Format profile : Main [email protected]@Main 
Codec ID : V_MPEGH/ISO/HEVC 
Duration : 1h 36mn 
Width : 3 840 pixels 
Height : 2 160 pixels 
Display aspect ratio : 16:9 
Frame rate mode : Constant 
Frame rate : 23.976 (24000/1001) fps 
Color space : YUV 
Chroma subsampling : 4:2:0 
Bit depth : 10 bits 
Writing library : x265 1.9+3-63308f7658c3:[Windows][GCC 5.2.0][64 bit] 10bit 
Encoding settings : wpp / ctu=64 / min-cu-size=8 / max-tu-size=32 / tu-intra-depth=1 / tu-inter-depth=1 / me=1 / subme=2 / merange=57 / no-rect / no-amp / max-merge=2 / temporal-mvp / no-early-skip / rdpenalty=0 / no-tskip / no-tskip-fast / strong-intra-smoothing / no-lossless / no-cu-lossless / no-constrained-intra / no-fast-intra / open-gop / no-temporal-layers / interlace=0 / keyint=240 / min-keyint=24 / scenecut=40 / rc-lookahead=20 / lookahead-slices=8 / bframes=4 / bframe-bias=0 / b-adapt=2 / ref=3 / limit-refs=3 / no-limit-modes / weightp / no-weightb / aq-mode=1 / qg-size=32 / aq-strength=1.00 / cbqpoffs=0 / crqpoffs=0 / rd=3 / psy-rd=2.00 / rdoq-level=0 / psy-rdoq=0.00 / signhide / deblock / sao / no-sao-non-deblock / b-pyramid / cutree / no-intra-refresh / rc=abr / bitrate=61000 / qcomp=0.60 / qpmin=0 / qpmax=51 / qpstep=4 / ipratio=1.40 / pbratio=1.30 
Language : German 
Default : Yes 
Forced : No 
Color range : Limited 
Color primaries : BT.709 
Transfer characteristics : BT.709 
Matrix coefficients : BT.601 

Audio #1 
ID : 2 
Format : DTS 
Format/Info : Digital Theater Systems 
Format profile : HRA / Core 
Mode : 16 
Format settings, Endianness : Big 
Muxing mode : Header stripping 
Codec ID : A_DTS 
Duration : 1h 36mn 
Bit rate mode : Constant 
Bit rate : 4 992 Kbps / 1 509 Kbps 
Channel(s) : 8 channels / 6 channels 
Channel positions : Front: L C R, Side: L R, Back: L R, LFE / Front: L C R, Side: L R, LFE 
Sampling rate : 48.0 KHz 
Frame rate : 93.750 fps (512 spf) 
Bit depth : 24 bits 
Compression mode : Lossy 
Delay relative to video : -5ms 
Stream size : 3.36 GiB (7%) 
Title : German DTS-HD HR 7.1 @ 4992 kbps mixed by LameHD 
Language : German 
Default : Yes 
Forced : Yes 

Audio #2 
ID : 3 
Format : DTS 
Format/Info : Digital Theater Systems 
Mode : 16 
Format settings, Endianness : Big 
Muxing mode : Header stripping 
Codec ID : A_DTS 
Duration : 1h 36mn 
Bit rate mode : Constant 
Bit rate : 768 Kbps 
Channel(s) : 6 channels 
Channel positions : Front: L C R, Side: L R, LFE 
Sampling rate : 48.0 KHz 
Frame rate : 93.750 fps (512 spf) 
Bit depth : 24 bits 
Compression mode : Lossy 
Delay relative to video : -5ms 
Stream size : 529 MiB (1%) 
Title : German DTS-HD MA 5.1 @ 768 kbps (Retail) 
Language : German 
Default : No 
Forced : No 

Audio #3 
ID : 4 
Format : DTS 
Format/Info : Digital Theater Systems 
Format profile : MA / ES Matrix / Core 
Mode : 16 
Format settings, Endianness : Big 
Muxing mode : Header stripping 
Codec ID : A_DTS 
Duration : 1h 36mn 
Bit rate mode : Variable / Constant / Constant 
Bit rate : Unknown / 1 509 Kbps / 1 509 Kbps 
Channel(s) : 8 channels / 7 channels / 6 channels 
Channel positions : Front: L C R, Side: L R, Back: L R, LFE / Front: L C R, Side: L R, Back: C, LFE / Front: L C R, Side: L R, LFE 
Sampling rate : 48.0 KHz 
Frame rate : 93.750 fps (512 spf) 
Bit depth : 24 bits 
Compression mode : Lossless / Lossy / Lossy 
Delay relative to video : -5ms 
Title : Englisch DTS-HD MA 7.1 @ 5308 kbps 
Language : English 
Default : No 
Forced : No 

Audio #4 
ID : 5 
Format : DTS 
Format/Info : Digital Theater Systems 
Mode : 16 
Format settings, Endianness : Big 
Muxing mode : Header stripping 
Codec ID : A_DTS 
Duration : 1h 36mn 
Bit rate mode : Constant 
Bit rate : 768 Kbps 
Channel(s) : 6 channels 
Channel positions : Front: L C R, Side: L R, LFE 
Sampling rate : 48.0 KHz 
Frame rate : 93.750 fps (512 spf) 
Bit depth : 24 bits 
Compression mode : Lossy 
Delay relative to video : -5ms 
Stream size : 529 MiB (1%) 
Title : French DTS-HD MA 5.1 @ 768 kbps 
Language : French 
Default : No 
Forced : No 

Audio #5 
ID : 6 
Format : DTS 
Format/Info : Digital Theater Systems 
Mode : 16 
Format settings, Endianness : Big 
Muxing mode : Header stripping 
Codec ID : A_DTS 
Duration : 1h 36mn 
Bit rate mode : Constant 
Bit rate : 768 Kbps 
Channel(s) : 6 channels 
Channel positions : Front: L C R, Side: L R, LFE 
Sampling rate : 48.0 KHz 
Frame rate : 93.750 fps (512 spf) 
Bit depth : 24 bits 
Compression mode : Lossy 
Delay relative to video : -5ms 
Stream size : 529 MiB (1%) 
Title : Italian DTS-HD MA 5.1 @ 768 kbps 
Language : Italian 
Default : No 
Forced : No 

Audio #6 
ID : 7 
Format : DTS 
Format/Info : Digital Theater Systems 
Mode : 16 
Format settings, Endianness : Big 
Muxing mode : Header stripping 
Codec ID : A_DTS 
Duration : 1h 36mn 
Bit rate mode : Constant 
Bit rate : 768 Kbps 
Channel(s) : 6 channels 
Channel positions : Front: L C R, Side: L R, LFE 
Sampling rate : 48.0 KHz 
Frame rate : 93.750 fps (512 spf) 
Bit depth : 24 bits 
Compression mode : Lossy 
Delay relative to video : -5ms 
Stream size : 529 MiB (1%) 
Title : Japanese DTS-HD MA 5.1 @ 768 kbps 
Language : Japanese 
Default : No 
Forced : No 

Audio #7 
ID : 8 
Format : DTS 
Format/Info : Digital Theater Systems 
Mode : 16 
Format settings, Endianness : Big 
Muxing mode : Header stripping 
Codec ID : A_DTS 
Duration : 1h 36mn 
Bit rate mode : Constant 
Bit rate : 768 Kbps 
Channel(s) : 6 channels 
Channel positions : Front: L C R, Side: L R, LFE 
Sampling rate : 48.0 KHz 
Frame rate : 93.750 fps (512 spf) 
Bit depth : 24 bits 
Compression mode : Lossy 
Delay relative to video : -5ms 
Stream size : 529 MiB (1%) 
Title : Spanish DTS-HD MA 5.1 @ 768 kbps 
Language : Spanish 
Default : No 
Forced : No 

Audio #8 
ID : 9 
Format : AC-3 
Format/Info : Audio Coding 3 
Mode extension : CM (complete main) 
Format settings, Endianness : Big 
Muxing mode : Header stripping 
Codec ID : A_AC3 
Duration : 1h 36mn 
Bit rate mode : Constant 
Bit rate : 448 Kbps 
Channel(s) : 6 channels 
Channel positions : Front: L C R, Side: L R, LFE 
Sampling rate : 48.0 KHz 
Frame rate : 31.250 fps (1536 spf) 
Compression mode : Lossy 
Delay relative to video : -5ms 
Stream size : 309 MiB (1%) 
Title : Thai AC3 5.1 @ 448 kbps 
Language : tai 
Default : No 
Forced : No 

Text #1 
ID : 10 
Format : PGS 
Muxing mode : zlib 
Codec ID : S_HDMV/PGS 
Codec ID/Info : Picture based subtitle format used on BDs/HD-DVDs 
Language : Arabic 
Default : No 
Forced : No 

Text #2 
ID : 11 
Format : PGS 
Muxing mode : zlib 
Codec ID : S_HDMV/PGS 
Codec ID/Info : Picture based subtitle format used on BDs/HD-DVDs 
Language : German 
Default : No 
Forced : No 

Text #3 
ID : 12 
Format : PGS 
Muxing mode : zlib 
Codec ID : S_HDMV/PGS 
Codec ID/Info : Picture based subtitle format used on BDs/HD-DVDs 
Language : Indonesian 
Default : No 
Forced : No 

Text #4 
ID : 13 
Format : PGS 
Muxing mode : zlib 
Codec ID : S_HDMV/PGS 
Codec ID/Info : Picture based subtitle format used on BDs/HD-DVDs 
Language : Spanish 
Default : No 
Forced : No 

Text #5 
ID : 14 
Format : PGS 
Muxing mode : zlib 
Codec ID : S_HDMV/PGS 
Codec ID/Info : Picture based subtitle format used on BDs/HD-DVDs 
Language : Italian 
Default : No 
Forced : No 

Text #6 
ID : 15 
Format : PGS 
Muxing mode : zlib 
Codec ID : S_HDMV/PGS 
Codec ID/Info : Picture based subtitle format used on BDs/HD-DVDs 
Language : English 
Default : No 
Forced : No 

Text #7 
ID : 16 
Format : PGS 
Muxing mode : zlib 
Codec ID : S_HDMV/PGS 
Codec ID/Info : Picture based subtitle format used on BDs/HD-DVDs 
Language : Dutch 
Default : No 
Forced : No 

Text #8 
ID : 17 
Format : PGS 
Muxing mode : zlib 
Codec ID : S_HDMV/PGS 
Codec ID/Info : Picture based subtitle format used on BDs/HD-DVDs 
Language : Hindi 
Default : No 
Forced : No 

Text #9 
ID : 18 
Format : PGS 
Muxing mode : zlib 
Codec ID : S_HDMV/PGS 
Codec ID/Info : Picture based subtitle format used on BDs/HD-DVDs 
Language : tai 
Default : No 
Forced : No 

Text #10 
ID : 19 
Format : PGS 
Muxing mode : zlib 
Codec ID : S_HDMV/PGS 
Codec ID/Info : Picture based subtitle format used on BDs/HD-DVDs 
Language : French 
Default : No 
Forced : No 

Text #11 
ID : 20 
Format : PGS 
Muxing mode : zlib 
Codec ID : S_HDMV/PGS 
Codec ID/Info : Picture based subtitle format used on BDs/HD-DVDs 
Language : Japanese 
Default : No 
Forced : No 

Text #12 
ID : 21 
Format : PGS 
Muxing mode : zlib 
Codec ID : S_HDMV/PGS 
Codec ID/Info : Picture based subtitle format used on BDs/HD-DVDs 
Language : Vietnamese 
Default : No 
Forced : No 

Menu 
00:00:00.000 : en:(01)00:00:00:000 
00:07:11.347 : en:(02)00:07:11:347 
00:09:02.959 : en:(03)00:09:02:959 
00:13:11.582 : en:(04)00:13:11:582 
00:16:21.605 : en:(05)00:16:21:605 
00:19:22.786 : en:(06)00:19:22:786 
00:24:43.815 : en:(07)00:24:43:815 
00:27:19.179 : en:(08)00:27:19:179 
00:30:18.691 : en:(09)00:30:18:691 
00:33:03.815 : en:(10)00:33:03:815 
00:38:18.713 : en:(11)00:38:18:713 
00:43:11.755 : en:(12)00:43:11:755 
00:46:53.435 : en:(13)00:46:53:435 
00:50:39.870 : en:(14)00:50:39:870 
00:54:02.530 : en:(15)00:54:02:530 
00:59:50.587 : en:(16)00:59:50:587 
01:06:01.749 : en:(17)01:06:01:749 
01:09:06.142 : en:(18)01:09:06:142 
01:13:23.190 : en:(19)01:13:23:190 
01:16:55.319 : en:(20)01:16:55:319 
01:21:15.745 : en:(21)01:21:15:745 
01:25:20.824 : en:(22)01:25:20:824 
01:28:06.155 : en:(23)01:28:06:155 
01:31:17.847 : en:(24)01:31:17:847 
01:36:16.562 : en:(25)01:36:16:562

Passwort: NIMA4K
Hoster: Share-online, Uploaded

Kommentare (5)

Bitte nutze die Kommentierfunktion ausschließlich für Releasespezifische Kommentare! Alles weitere kann gern in der Shoutbox oder im Forum diskutiert werden.

Kommentar schreiben

Offlinedateien werden vom System automatisch erkannt und der Reupload angestoßen. Schau am besten in ein paar Stunden wieder rein :)
CAPTCHA Image

hdfan1 09.11.2016 - 16:30 Uhr

Unter MKVToolnix den Wert mit -1400 eingeben neu muxen , dann passt es

hdfan1 07.11.2016 - 14:06 Uhr

Ja Tonse ist asynchron

marban 07.11.2016 - 00:27 Uhr

selten das eine LameHD Tonspur synchron ist bzw. auch gut ist.

renatus41 06.11.2016 - 19:51 Uhr

Ist auch hier im Film total asynchron. Deutsch und englisch auf jeden Fall.

Kandesbunzler 06.11.2016 - 17:45 Uhr

also ich hab alles probiert,die 7.1 Tonse funzt nicht bei der alten Version(total asyncron).Hat jemand das gleiche Problem???