Your first Source for 4K-Releases

The.Fourth.Phase.2016.2160p.WEB-DL.AAC2.0.x264-Crook

The Fourth Phase (2016) The.Fourth.Phase.2016.2160p.WEB-DL.AAC2.0.x264-Crook

Eingetragen am 06.10.2016 um 21:31 Uhr

  • Größe 13,30 GB
  • Codec AVC x264
  • Source Web-DL
  • Sprache English AAC 2.0, Russian AAC 2.0
  • Auflösung 3840x2160
  • Laufzeit 1 Stunde 32 Minuten
  • Bitrate 20,10 Mb/s

From the creators of The Art of FLIGHT, Red Bull Media House presents THE FOURTH PHASE, a snowboarding epic starring iconic athlete Travis Rice. A gifted innovator, Rice has always held the keys to what’s possible, yet he still seeks more. While exploring the untapped backcountry of his native Wyoming with mentor Bryan Iguchi, Rice plots a 16,000 mile course to follow the hydrological cycle around the northern Pacific, where snow and ice create dreamlike landscapes on the towering mountains above. On his journey, Rice is joined by several of snowboarding’s most innovative riders, including Mark Landvik, Eric Jackson, Bryan Iguchi, Pat Moore, Mikkel Bang, Jeremy Jones, Victor de Le Rue, Ben Ferguson From the Japanese Alps to the volcanoes of Russia and a spectacularly remote area of Alaska, the team is committed to enduring all that comes with immersing themselves in nature’s cycle. But the stakes are high and Rice knows that he’ll be at the mercy of his own decision-making. Scored by Kishi Bashi, shot entirely in 4K ultra HD and optimized for Dolby Atmos and Dolby Vision, THE FOURTH PHASE carves a fresh path, using an artistic blend of action, story and cinematography to bring this stunning feature to life. A film for anyone fascinated by the possibilities of adventure, of the natural world – of life.

Release Media Infos

General
Unique ID                                : 225372081399057108706145240732661459592 (0xA98D15824DD6DFA199430927837C2A88)
Complete name                            : The.Fourth.Phase.2016.2160p.WEB-DL.AAC2.0.x264-Crook.mkv
Format                                   : Matroska
Format version                           : Version 4 / Version 2
File size                                : 13.3 GiB
Duration                                 : 1h 32mn
Overall bit rate                         : 20.6 Mbps
Movie name                               : The Fourth Phase (2016)
Encoded date                             : UTC 2016-10-04 15:52:10
Writing application                      : mkvmerge v9.1.0 ('Little Earthquakes') 64bit
Writing library                          : libebml v1.3.3 + libmatroska v1.4.4
Attachments                              : poster.jpg

Video
ID                                       : 1
Format                                   : AVC
Format/Info                              : Advanced Video Codec
Format profile                           : [email protected]
Format settings, CABAC                   : Yes
Format settings, ReFrames                : 5 frames
Codec ID                                 : V_MPEG4/ISO/AVC
Duration                                 : 1h 32mn
Bit rate                                 : 20.1 Mbps
Width                                    : 3 840 pixels
Height                                   : 2 160 pixels
Display aspect ratio                     : 16:9
Frame rate mode                          : Constant
Frame rate                               : 23.976 (24000/1001) fps
Color space                              : YUV
Chroma subsampling                       : 4:2:0
Bit depth                                : 8 bits
Scan type                                : Progressive
Bits/(Pixel*Frame)                       : 0.101
Stream size                              : 12.9 GiB (97%)
Title                                    : MPEG-4 AVC Video / 20100 kbps / 2160p / 23.976 fps / 16:9 / High Profile 5.2
Writing library                          : x264 core 148 r10 3f5ed56
Encoding settings                        : cabac=1 / ref=5 / deblock=1:0:0 / analyse=0x3:0x113 / me=umh / subme=8 / psy=1 / psy_rd=1.00:0.00 / mixed_ref=1 / me_range=16 / chroma_me=1 / trellis=1 / 8x8dct=1 / cqm=0 / deadzone=21,11 / fast_pskip=1 / chroma_qp_offset=-2 / threads=48 / lookahead_threads=8 / sliced_threads=0 / nr=0 / decimate=1 / interlaced=0 / bluray_compat=0 / stitchable=1 / constrained_intra=0 / bframes=3 / b_pyramid=2 / b_adapt=2 / b_bias=0 / direct=3 / weightb=1 / open_gop=0 / weightp=2 / keyint=infinite / keyint_min=23 / scenecut=40 / intra_refresh=0 / rc_lookahead=50 / rc=crf / mbtree=1 / crf=20.0 / qcomp=0.60 / qpmin=5 / qpmax=69 / qpstep=4 / vbv_maxrate=24200 / vbv_bufsize=66000 / crf_max=0.0 / nal_hrd=none / filler=0 / ip_ratio=1.40 / aq=1:1.00
Language                                 : English
Default                                  : Yes
Forced                                   : No
Color range                              : Limited
Color primaries                          : BT.709
Transfer characteristics                 : BT.709
Matrix coefficients                      : BT.709

Audio #1
ID                                       : 2
Format                                   : AAC
Format/Info                              : Advanced Audio Codec
Format profile                           : LC
Codec ID                                 : A_AAC
Duration                                 : 1h 32mn
Bit rate                                 : 256 Kbps
Channel(s)                               : 2 channels
Channel positions                        : Front: L R
Sampling rate                            : 48.0 KHz
Frame rate                               : 46.875 fps (1024 spf)
Compression mode                         : Lossy
Stream size                              : 169 MiB (1%)
Title                                    : Russian by V.Dvortsov
Language                                 : Russian
Default                                  : Yes
Forced                                   : No

Audio #2
ID                                       : 3
Format                                   : AAC
Format/Info                              : Advanced Audio Codec
Format profile                           : LC
Codec ID                                 : A_AAC
Duration                                 : 1h 32mn
Bit rate                                 : 256 Kbps
Channel(s)                               : 2 channels
Channel positions                        : Front: L R
Sampling rate                            : 48.0 KHz
Frame rate                               : 46.875 fps (1024 spf)
Compression mode                         : Lossy
Stream size                              : 169 MiB (1%)
Title                                    : English (Original)
Language                                 : English
Default                                  : No
Forced                                   : No


Passwort: NIMA4K
Hoster: Share-online, Uploaded

Kommentare (0)

Bitte nutze die Kommentierfunktion ausschließlich für Releasespezifische Kommentare! Alles weitere kann gern in der Shoutbox oder im Forum diskutiert werden.

Kommentar schreiben

Du bist nicht eingeloggt! Bitte registriere Dich hier, um einen Kommentar zu schreiben. Falls Du bereits einen Account hast, kannst du dich hier einloggen.
Noch keine Kommentare vorhanden. Schreibe den ersten Kommentar!