Guten Abend! Gast

Your first Source for 4K-Releases

Ready.Player.One.2018.German.DD51.2160p.WebUHD.HDR.x265-Skylake

Ready Player One (2018) Ready.Player.One.2018.German.DD51.2160p.WebUHD.HDR.x265-Skylake

Eingetragen am 26.06.2018 um 08:43 Uhr

  • Größe 17,60 GB
  • Codec HEVC x265
  • Source WebRip
  • Sprache Deutsch Dolby Digital 5.1
  • Auflösung 3840x1600
  • Laufzeit 2 Stunden 20 Minuten
  • Bitrate 17,40 Mb/s

Im Jahr 2045 spielt sich das Leben vieler Menschen auf der heruntergekommenen Erde zum größten Teil nur noch in der OASIS ab. Das ist eine vom ebenso genialen wie exzentrischen Programmierer und Web-Designer James Halliday (Mark Rylance) erfundene virtuelle Welt, die mehr als die düstere Realität zu bieten hat. Die meiste Zeit seines jungen Lebens verbringt auch der 18-jährige Wade Watts (Tye Sheridan) damit, mit seinem Avatar Parzival in diese Welt einzutauchen und zu versuchen, die Aufgaben zu lösen, die Halliday vor seinem Tod in der OASIS hinterlassen hat. Demjenigen, der als erster alle Herausforderungen meistert, winkt nämlich unermesslicher Reichtum und die Kontrolle über die OASIS. Bislang sind Wade und seine Freunde zwar stets schon an der ersten Aufgabe gescheitert, doch sie geben nicht auf – ebenso wenig wie der skrupellose Konzernchef Nolan Sorrento (Ben Mendelsohn), der sich OASIS unbedingt unter den Nagel reißen will…

Trailer

Mediainfo / NFO

General
Unique ID                                : 234309622258518118497420000138778572170 (0xB046644B78358B89AB3D2CF25266F58A)
Complete name                            : Ready.Player.One.2018.German.DD51.2160p.WebUHD.HDR.x265-Skylake.mkv
Format                                   : Matroska
Format version                           : Version 4 / Version 2
File size                                : 17.6 GiB
Duration                                 : 2 h 20 min
Overall bit rate                         : 18.0 Mb/s
Encoded date                             : UTC 2018-06-18 18:23:26
Writing application                      : mkvmerge v14.0.0 ('Flow') 64bit
Writing library                          : libebml v1.3.4 + libmatroska v1.4.5

Video
ID                                       : 1
Format                                   : HEVC
Format/Info                              : High Efficiency Video Coding
Format profile                           : Main [email protected]@High
Codec ID                                 : V_MPEGH/ISO/HEVC
Duration                                 : 2 h 20 min
Bit rate                                 : 17.4 Mb/s
Width                                    : 3 840 pixels
Height                                   : 1 600 pixels
Display aspect ratio                     : 2.40:1
Frame rate mode                          : Constant
Frame rate                               : 23.976 (23976/1000) FPS
Original frame rate                      : 23.976 (24000/1001) FPS
Color space                              : YUV
Chroma subsampling                       : 4:2:0
Bit depth                                : 10 bits
Bits/(Pixel*Frame)                       : 0.118
Stream size                              : 17.0 GiB (96%)
Default                                  : Yes
Forced                                   : No
Color range                              : Limited
Color primaries                          : BT.2020
Transfer characteristics                 : PQ
Matrix coefficients                      : BT.2020 non-constant
Mastering display color primaries        : R: x=0.708000 y=0.291980, G: x=0.170000 y=0.797000, B: x=0.131000 y=0.046000, White point: x=0.312680 y=0.329000
Mastering display luminance              : min: 0.0050 cd/m2, max: 3999.0000 cd/m2
Maximum Content Light Level              : 4000 cd/m2
Maximum Frame-Average Light Level        : 1000 cd/m2

Audio
ID                                       : 2
Format                                   : AC-3
Format/Info                              : Audio Coding 3
Format settings, Endianness              : Big
Codec ID                                 : A_AC3
Duration                                 : 2 h 20 min
Bit rate mode                            : Constant
Bit rate                                 : 640 kb/s
Channel(s)                               : 6 channels
Channel positions                        : Front: L C R, Side: L R, LFE
Sampling rate                            : 48.0 kHz
Frame rate                               : 31.250 FPS (1536 SPF)
Bit depth                                : 16 bits
Compression mode                         : Lossy
Delay relative to video                  : 302 ms
Stream size                              : 642 MiB (4%)
Language                                 : German
Service kind                             : Complete Main
Default                                  : Yes
Forced                                   : No


Passwort: NIMA4K
Hoster: Share-Online, Rapidgator

Kommentare (1)

Bitte nutze die Kommentierfunktion ausschließlich für releasespezifische Kommentare! Alles weitere kann gern in der Shoutbox oder im Forum diskutiert werden.

Kommentar schreiben

Du bist nicht eingeloggt! Bitte registriere Dich hier, um einen Kommentar zu schreiben. Falls Du bereits einen Account hast, kannst du dich hier einloggen.

Duffus 27.06.2018 - 16:58 Uhr

Hey Super nice das es den Film schon gibt aber habt ihr ihn auch noch in English?? das währe sooo fett. Aber danke schonmal :)