Grüß dich! Gast

Your first Source for 4K-Releases

F1.2018.Monaco.Grand.Prix.Qualifying.Q2+Q3.German.2160p.HDTV.HEVC.50fps.ac3.2.0-iND

Formel 1 2018 - Grosser Preis von Monaco - Qualifying F1.2018.Monaco.Grand.Prix.Qualifying.Q2+Q3.German.2160p.HDTV.HEVC.50fps.ac3.2.0-iND

Eingetragen am 27.05.2018 um 14:29 Uhr

  • Größe 3,92 GB
  • Codec HEVC
  • Source UHDTV
  • Sprache Deutsch Dolby Digital 2.0
  • Auflösung 3840x2160
  • Laufzeit 30 Minuten
  • Bitrate 17,50 Mb/s

Formel 1 2018 - Grosser Preis von Monaco - Qualifying

Mediainfo / NFO

General
ID                                       : 1013 (0x3F5)
Complete name                            : F1.2018.Monaco.Grand.Prix.Qualifying.Q2+Q3.German.2160p.HDTV.HEVC.50fps.ac3.2.0-iND.ts
Format                                   : MPEG-TS
File size                                : 3.92 GiB
Duration                                 : 30 min 2 s
Overall bit rate mode                    : Variable
Overall bit rate                         : 18.7 Mb/s

Video
ID                                       : 2815 (0xAFF)
Menu ID                                  : 12410 (0x307A)
Format                                   : HEVC
Format/Info                              : High Efficiency Video Coding
Format profile                           : Main [email protected]@Main
Codec ID                                 : 36
Duration                                 : 20 h 37 min
Bit rate                                 : 17.5 Mb/s
Width                                    : 3 840 pixels
Height                                   : 2 160 pixels
Display aspect ratio                     : 16:9
Frame rate                               : 50.000 FPS
Standard                                 : Component
Color space                              : YUV
Chroma subsampling                       : 4:2:0 (Type 0)
Bit depth                                : 10 bits
Bits/(Pixel*Frame)                       : 0.042
Stream size                              : 152 GiB
Color range                              : Full
Color primaries                          : BT.709
Transfer characteristics                 : BT.709
Matrix coefficients                      : BT.709

Audio
ID                                       : 2816 (0xB00)
Menu ID                                  : 12410 (0x307A)
Format                                   : E-AC-3
Format/Info                              : Enhanced Audio Coding 3
Format settings, Endianness              : Big
Codec ID                                 : 6
Duration                                 : 30 min 2 s
Bit rate mode                            : Constant
Bit rate                                 : 224 kb/s
Channel(s)                               : 2 channels
Channel positions                        : Front: L R
Sampling rate                            : 48.0 kHz
Frame rate                               : 187.500 FPS (256 SPF)
Compression mode                         : Lossy
Delay relative to video                  : 224 ms
Stream size                              : 48.1 MiB (1%)
Language                                 : German
Language, more info                      : Clean effects
Service kind                             : Complete Main


Passwort: NIMA4K
Hoster: Share-Online, Rapidgator

Kommentare (2)

Bitte nutze die Kommentierfunktion ausschließlich für releasespezifische Kommentare! Alles weitere kann gern in der Shoutbox oder im Forum diskutiert werden.

Kommentar schreiben

Du bist nicht eingeloggt! Bitte registriere Dich hier, um einen Kommentar zu schreiben. Falls Du bereits einen Account hast, kannst du dich hier einloggen.

NIMA4K 27.05.2018 - 14:37 Uhr

Ja es wird nur Q2 und Q3 gezeigt auch Werbung wurde entfernt.

André 27.05.2018 - 14:34 Uhr

30 Minuten?