Your first Source for 4K-Releases

IMAX.Moi.Van.Gogh.2009.2160p.Amazon.WEBRip.DD5.1.x264-TrollUHD

IMAX: Van Gogh: Brush with Genius / Moi, Van Gogh (2009) IMAX.Moi.Van.Gogh.2009.2160p.Amazon.WEBRip.DD5.1.x264-TrollUHD

Eingetragen am 27.04.2016 um 19:03 Uhr

  • Größe 5,97 GB
  • Codec AVC x264
  • Source Web-DL
  • Sprache English DD 5.1
  • Auflösung 3840x2160
  • Laufzeit 40 Minuten
  • Bitrate 21,80 Mb/s

The film tells about the last years life of an artist of genius.

Release Media Infos

General
Unique ID                                : 211640875728217185113441726423882918014 (0x9F388CCCF08DE5F48CA9D29C5535E87E)
Complete name                            : IMAX.Moi.Van.Gogh.2009.2160p.Amazon.WEBRip.DD5.1.x264-TrollUHD.mkv
Format                                   : Matroska
Format version                           : Version 4 / Version 2
File size                                : 5.97 GiB
Duration                                 : 39mn 16s
Overall bit rate                         : 21.8 Mbps
Movie name                               : IMAX - Van Gogh: Brush with Genius (2009)
Encoded date                             : UTC 2016-04-18 01:37:47
Writing application                      : mkvmerge v8.3.0 ('Over the Horizon') 64bit
Writing library                          : libebml v1.3.1 + libmatroska v1.4.2
DURATION                                 : 00:39:16.672000000
NUMBER_OF_FRAMES                         : 73646
NUMBER_OF_BYTES                          : 188533760
_STATISTICS_WRITING_APP                  : mkvmerge v8.3.0 ('Over the Horizon') 64bit
_STATISTICS_WRITING_DATE_UTC             : 2016-04-18 01:37:47
_STATISTICS_TAGS                         : BPS DURATION NUMBER_OF_FRAMES NUMBER_OF_BYTES

Video
ID                                       : 1
Format                                   : AVC
Format/Info                              : Advanced Video Codec
Format profile                           : [email protected]
Format settings, CABAC                   : Yes
Format settings, ReFrames                : 5 frames
Codec ID                                 : V_MPEG4/ISO/AVC
Duration                                 : 39mn 16s
Bit rate                                 : 20.7 Mbps
Width                                    : 3 840 pixels
Height                                   : 2 160 pixels
Display aspect ratio                     : 16:9
Frame rate mode                          : Constant
Frame rate                               : 23.976 fps
Color space                              : YUV
Chroma subsampling                       : 4:2:0
Bit depth                                : 8 bits
Scan type                                : Progressive
Bits/(Pixel*Frame)                       : 0.104
Stream size                              : 5.68 GiB (95%)
Writing library                          : x264 core 148 r2638 7599210
Encoding settings                        : cabac=1 / ref=5 / deblock=1:-1:-1 / analyse=0x3:0x133 / me=umh / subme=10 / psy=1 / psy_rd=1.00:0.15 / mixed_ref=1 / me_range=48 / chroma_me=1 / trellis=2 / 8x8dct=1 / cqm=0 / deadzone=21,11 / fast_pskip=1 / chroma_qp_offset=-3 / threads=12 / lookahead_threads=2 / sliced_threads=0 / nr=0 / decimate=0 / interlaced=0 / bluray_compat=0 / constrained_intra=0 / bframes=8 / b_pyramid=2 / b_adapt=2 / b_bias=0 / direct=3 / weightb=1 / open_gop=0 / weightp=2 / keyint=240 / keyint_min=23 / scenecut=40 / intra_refresh=0 / rc_lookahead=60 / rc=crf / mbtree=1 / crf=17.0 / qcomp=0.70 / qpmin=0 / qpmax=69 / qpstep=4 / vbv_maxrate=300000 / vbv_bufsize=300000 / crf_max=0.0 / nal_hrd=none / filler=0 / ip_ratio=1.40 / aq=1:0.90
Default                                  : Yes
Forced                                   : No

Audio
ID                                       : 2
Format                                   : AC-3
Format/Info                              : Audio Coding 3
Mode extension                           : CM (complete main)
Format settings, Endianness              : Big
Codec ID                                 : A_AC3
Duration                                 : 39mn 16s
Bit rate mode                            : Constant
Bit rate                                 : 640 Kbps
Channel(s)                               : 6 channels
Channel positions                        : Front: L C R, Side: L R, LFE
Sampling rate                            : 48.0 KHz
Bit depth                                : 16 bits
Compression mode                         : Lossy
Stream size                              : 180 MiB (3%)
Language                                 : English
Default                                  : Yes
Forced                                   : No

Menu
00:00:00.000                             : en:00:00:00.000
00:03:12.901                             : en:00:03:12.901
00:04:20.176                             : en:00:04:20.176
00:06:43.152                             : en:00:06:43.152
00:09:22.228                             : en:00:09:22.228
00:10:59.700                             : en:00:10:59.700
00:13:49.745                             : en:00:13:49.745
00:20:02.117                             : en:00:20:02.117
00:21:21.071                             : en:00:21:21.071
00:24:15.162                             : en:00:24:15.162
00:28:36.464                             : en:00:28:36.464
00:33:21.499                             : en:00:33:21.499

Passwort: NIMA4K
Hoster: Share-online, Uploaded

Kommentare (0)

Bitte nutze die Kommentierfunktion ausschließlich für Releasespezifische Kommentare! Alles weitere kann gern in der Shoutbox oder im Forum diskutiert werden.

Kommentar schreiben

Du bist nicht eingeloggt! Bitte registriere Dich hier, um einen Kommentar zu schreiben. Falls Du bereits einen Account hast, kannst du dich hier einloggen.
Noch keine Kommentare vorhanden. Schreibe den ersten Kommentar!