Your first Source for 4K-Releases

Truth.or.Dare.2018.EXTENDED.German.DD51.2160p.WebUHD.HDR.x265-Skylake

Wahrheit oder Pflicht (2018) Truth.or.Dare.2018.EXTENDED.German.DD51.2160p.WebUHD.HDR.x265-Skylake

Eingetragen am 11.08.2018 um 14:53 Uhr

  • Größe 13,80 GB
  • Codec HEVC x265
  • Source WebRip
  • Sprache Deutsch Dolby Digital 5.1
  • Auflösung 3840x1608
  • Laufzeit 1 Stunde 40 Minuten
  • Bitrate 19,00 Mb/s

Anfangs glauben Olivia (Lucy Hale), Lucas (Tyler Posey), Markie (Violett Beane) und ihre College-Freunde noch, mit Truth or Dare, also Wahrheit oder Pflicht, lediglich einem lustigen Abend unter Freunden zu veranstalten. Doch als der nicht zur Clique gehörende Carter (Landon Liboiron) ihnen offenbart, dass er sie zum Spielen verführt hat, müssen sie erkennen, dass alles bitterer Ernst ist: Denn wer nicht die Wahrheit sagt oder nicht die verlangten Mutproben absolviert, stirbt. Plötzlich sind es nicht mehr die Studenten, die Wahrheit oder Pflicht spielen, sondern das Spiel selbst, das mit ihnen macht, was es will. Zu immer neuen Herausforderungen und Enthüllungen gezwungen, wird die Gruppe schnell dezimiert und es ist kein Ende des Sterbens in Sicht. Die Überlebenden erkennen, dass sie zum Ursprung des Übels nach Mexiko reisen müssen, wenn sie ihr Leben nicht aufs Spiel setzen wollen.

Trailer

Release Media Infos

General
Unique ID                                : 202156719431199733958678312209011460776 (0x9815F7CAFDFA592C9A7C821B90484AA8)
Complete name                            : Truth.or.Dare.2018.EXTENDED.German.DD51.2160p.WebUHD.HDR.x265-Skylake.mkv
Format                                   : Matroska
Format version                           : Version 4 / Version 2
File size                                : 13.8 GiB
Duration                                 : 1 h 40 min
Overall bit rate                         : 19.7 Mb/s
Encoded date                             : UTC 2018-08-01 22:00:00
Writing application                      : mkvmerge v14.0.0 ('Flow') 64bit
Writing library                          : libebml v1.3.4 + libmatroska v1.4.5

Video
ID                                       : 1
Format                                   : HEVC
Format/Info                              : High Efficiency Video Coding
Format profile                           : Main [email protected]@Main
Codec ID                                 : V_MPEGH/ISO/HEVC
Duration                                 : 1 h 40 min
Bit rate                                 : 19.0 Mb/s
Width                                    : 3 840 pixels
Height                                   : 1 608 pixels
Display aspect ratio                     : 2.40:1
Frame rate mode                          : Constant
Frame rate                               : 23.976 (24000/1001) FPS
Color space                              : YUV
Chroma subsampling                       : 4:2:0
Bit depth                                : 10 bits
Bits/(Pixel*Frame)                       : 0.129
Stream size                              : 13.4 GiB (97%)
Default                                  : Yes
Forced                                   : No
Color range                              : Limited
Color primaries                          : BT.2020
Transfer characteristics                 : PQ
Matrix coefficients                      : BT.2020 non-constant
Mastering display color primaries        : R: x=0.680000 y=0.320000, G: x=0.265000 y=0.690000, B: x=0.150000 y=0.060000, White point: x=0.312700 y=0.329000
Mastering display luminance              : min: 0.0050 cd/m2, max: 1000.0000 cd/m2
Maximum Content Light Level              : 763 cd/m2
Maximum Frame-Average Light Level        : 112 cd/m2

Audio
ID                                       : 2
Format                                   : AC-3
Format/Info                              : Audio Coding 3
Format settings, Endianness              : Big
Codec ID                                 : A_AC3
Duration                                 : 1 h 40 min
Bit rate mode                            : Constant
Bit rate                                 : 640 kb/s
Channel(s)                               : 6 channels
Channel positions                        : Front: L C R, Side: L R, LFE
Sampling rate                            : 48.0 kHz
Frame rate                               : 31.250 FPS (1536 SPF)
Bit depth                                : 16 bits
Compression mode                         : Lossy
Delay relative to video                  : 22 ms
Stream size                              : 461 MiB (3%)
Language                                 : German
Service kind                             : Complete Main
Default                                  : Yes
Forced                                   : No

Passwort: NIMA4K
Hoster: Share-Online, Rapidgator

Kommentare (2)

Bitte nutze die Kommentierfunktion ausschließlich für Releasespezifische Kommentare! Alles weitere kann gern in der Shoutbox oder im Forum diskutiert werden.

Kommentar schreiben

Du bist nicht eingeloggt! Bitte registriere Dich hier, um einen Kommentar zu schreiben. Falls Du bereits einen Account hast, kannst du dich hier einloggen.

Speziald 11.08.2018 - 20:17 Uhr

Steht doch sogar im Titel quasi :D ".WebUHD" also via iTunes

suarsg 11.08.2018 - 19:25 Uhr

Weiß jemand was da die Source ist?