Your first Source for 4K-Releases

Unsane.2018.German.DD51.2160p.WebUHD.HDR.x265-Skylake

Unsane: Ausgeliefert (2018) Unsane.2018.German.DD51.2160p.WebUHD.HDR.x265-Skylake

Eingetragen am 29.06.2018 um 19:51 Uhr

  • Größe 16,30 GB
  • Codec HEVC x265
  • Source WebRip
  • Sprache Deutsch Dolby Digital 5.1
  • Auflösung 3376x2160
  • Laufzeit 1 Stunde 38 Minuten
  • Bitrate 23,10 Mb/s

Sawyer Valentini ist auf der Flucht vor dem hartnäckigen Stalker David Strine. Sie will diese Vergangenheit hinter sich lassen und in einer neuen Stadt mit einem neuen Job noch einmal von vorne beginnen. Doch dann landet sie gegen ihren Willen in einer psychiatrischen Einrichtung und wird dort festgehalten. Damit nicht genug: Während ihres unfreiwilligen Klinikaufenthalts sieht sie sich mit ihrer größten Angst konfrontiert, denn ihr Stalker scheint sich unter dem Pflegepersonal der Klink zu befinden. Aber ist das wirklich der Fall oder bildet sie sich das nur ein? Niemand vom Personal der Einrichtung ist bereit, Sawyer zu glauben, und auch die Polizei stellt sich als wenig hilfreich heraus. Mutter Angela versucht unterdessen ihr Möglichstes, die Tochter freizubekommen…

Trailer

Release Media Infos

General
Unique ID                                : 207937272147323713487801262819313334365 (0x9C6F430BC3E4D980AD0E055FCAC2385D)
Complete name                            : Unsane.2018.German.DD51.2160p.WebUHD.HDR.x265-Skylake.mkv
Format                                   : Matroska
Format version                           : Version 4 / Version 2
File size                                : 16.3 GiB
Duration                                 : 1 h 38 min
Overall bit rate                         : 23.8 Mb/s
Encoded date                             : UTC 2018-06-28 16:24:46
Writing application                      : mkvmerge v14.0.0 ('Flow') 64bit
Writing library                          : libebml v1.3.4 + libmatroska v1.4.5

Video
ID                                       : 1
Format                                   : HEVC
Format/Info                              : High Efficiency Video Coding
Format profile                           : Main [email protected]@High
Codec ID                                 : V_MPEGH/ISO/HEVC
Duration                                 : 1 h 38 min
Bit rate                                 : 23.1 Mb/s
Width                                    : 3 376 pixels
Height                                   : 2 160 pixels
Display aspect ratio                     : 16:10
Frame rate mode                          : Constant
Frame rate                               : 23.976 (23976/1000) FPS
Original frame rate                      : 23.976 (24000/1001) FPS
Color space                              : YUV
Chroma subsampling                       : 4:2:0
Bit depth                                : 10 bits
Bits/(Pixel*Frame)                       : 0.132
Stream size                              : 15.9 GiB (97%)
Default                                  : Yes
Forced                                   : No
Color range                              : Limited
Color primaries                          : BT.2020
Transfer characteristics                 : PQ
Matrix coefficients                      : BT.2020 non-constant
Mastering display color primaries        : R: x=0.708000 y=0.291980, G: x=0.170000 y=0.797000, B: x=0.131000 y=0.046000, White point: x=0.312680 y=0.329000
Mastering display luminance              : min: 0.0050 cd/m2, max: 1000.0000 cd/m2
Maximum Content Light Level              : 1317 cd/m2
Maximum Frame-Average Light Level        : 257 cd/m2

Audio
ID                                       : 2
Format                                   : AC-3
Format/Info                              : Audio Coding 3
Format settings, Endianness              : Big
Codec ID                                 : A_AC3
Duration                                 : 1 h 38 min
Bit rate mode                            : Constant
Bit rate                                 : 640 kb/s
Channel(s)                               : 6 channels
Channel positions                        : Front: L C R, Side: L R, LFE
Sampling rate                            : 48.0 kHz
Frame rate                               : 31.250 FPS (1536 SPF)
Bit depth                                : 16 bits
Compression mode                         : Lossy
Delay relative to video                  : 315 ms
Stream size                              : 450 MiB (3%)
Language                                 : German
Service kind                             : Complete Main
Default                                  : Yes
Forced                                   : No

Menu
00:00:00.000                             : en:00:00:00.000
00:05:40.257                             : en:00:05:40.257
00:10:21.913                             : en:00:10:21.913
00:14:24.697                             : en:00:14:24.697
00:19:26.332                             : en:00:19:26.332
00:24:46.235                             : en:00:24:46.235
00:29:10.165                             : en:00:29:10.165
00:36:35.402                             : en:00:36:35.402
00:40:25.089                             : en:00:40:25.089
00:45:23.596                             : en:00:45:23.596
00:50:14.803                             : en:00:50:14.803
00:56:12.286                             : en:00:56:12.286
00:59:06.835                             : en:00:59:06.835
01:04:44.464                             : en:01:04:44.464
01:07:30.046                             : en:01:07:30.046
01:15:37.450                             : en:01:15:37.450
01:23:25.334                             : en:01:23:25.334
01:26:39.653                             : en:01:26:39.653
01:30:23.168                             : en:01:30:23.168
01:35:08.411                             : en:01:35:08.411


Passwort: NIMA4K
Hoster: Share-Online, Rapidgator

Kommentare (1)

Bitte nutze die Kommentierfunktion ausschließlich für Releasespezifische Kommentare! Alles weitere kann gern in der Shoutbox oder im Forum diskutiert werden.

Kommentar schreiben

Du bist nicht eingeloggt! Bitte registriere Dich hier, um einen Kommentar zu schreiben. Falls Du bereits einen Account hast, kannst du dich hier einloggen.

Coaly 30.06.2018 - 00:14 Uhr

Der Film ist mit nem iPhone gedreht und den gibts in 4K? Ok :D