Your first Source for 4K-Releases

Tomb.Raider.2018.German.DD51.DL.2160p.WebUHD.HDR.x265-Skylake

Tomb Raider (2018) Tomb.Raider.2018.German.DD51.DL.2160p.WebUHD.HDR.x265-Skylake

Eingetragen am 26.06.2018 um 08:18 Uhr

  • Größe 11,90 GB
  • Codec HEVC x265
  • Source WebRip
  • Sprache Deutsch Dolby Digital 5.1, English Dolby Digital 5.1
  • Auflösung 3840x1600
  • Laufzeit 1 Stunde 58 Minuten
  • Bitrate 13,40 Mb/s

Vor sieben Jahren verschwand Lord Richard Croft, der Vater der mittlerweile 21-jährigen Lara Croft , doch noch immer hat sie nicht die Kontrolle über dessen global agierendes Wirtschaftsimperium übernommen, sondern lebt als Studentin und Fahrradkurierin in London. Eines Tages beschließt Lara dann jedoch, dem Verschwinden ihres Vaters nachzuspüren, und reist dafür zu seinem letzten bekannten Aufenthaltsort, einer kleinen Insel vor der Küste von Japan. Dort hatte dieser ein geheimnisvolles Grabmal untersucht. Doch kaum auf der Insel angekommen, sieht sich Lara zahlreichen lebensbedrohlichen Gefahren ausgesetzt und sie muss bis an ihre Grenzen gehen und - ausgestattet lediglich mit ihrem scharfen Verstand und ihrem beträchtlichen Willen - um ihr Überleben kämpfen.

Trailer

Release Media Infos

General
Unique ID                                : 207796119127684202083024173049535265090 (0x9C5413AA2F03BAA1BA06ADB0A25BF942)
Complete name                            : Tomb.Raider.2018.German.DD51.DL.2160p.WebUHD.HDR.x265-Skylake.mkv
Format                                   : Matroska
Format version                           : Version 4 / Version 2
File size                                : 11.9 GiB
Duration                                 : 1 h 58 min
Overall bit rate                         : 14.4 Mb/s
Encoded date                             : UTC 2018-06-10 00:29:08
Writing application                      : mkvmerge v14.0.0 ('Flow') 64bit
Writing library                          : libebml v1.3.4 + libmatroska v1.4.5

Video
ID                                       : 1
Format                                   : HEVC
Format/Info                              : High Efficiency Video Coding
Format profile                           : Main [email protected]@High
Codec ID                                 : V_MPEGH/ISO/HEVC
Duration                                 : 1 h 57 min
Bit rate                                 : 13.4 Mb/s
Width                                    : 3 840 pixels
Height                                   : 1 600 pixels
Display aspect ratio                     : 2.40:1
Frame rate mode                          : Constant
Frame rate                               : 23.976 (24000/1001) FPS
Color space                              : YUV
Chroma subsampling                       : 4:2:0
Bit depth                                : 10 bits
Bits/(Pixel*Frame)                       : 0.091
Stream size                              : 11.0 GiB (93%)
Default                                  : Yes
Forced                                   : No
Color range                              : Limited
Color primaries                          : BT.2020
Transfer characteristics                 : PQ
Matrix coefficients                      : BT.2020 non-constant
Mastering display color primaries        : R: x=0.708000 y=0.291980, G: x=0.170000 y=0.797000, B: x=0.131000 y=0.046000, White point: x=0.312680 y=0.329000
Mastering display luminance              : min: 0.0050 cd/m2, max: 3999.0000 cd/m2
Maximum Content Light Level              : 4000 cd/m2
Maximum Frame-Average Light Level        : 1000 cd/m2

Audio #1
ID                                       : 2
Format                                   : AC-3
Format/Info                              : Audio Coding 3
Format settings, Endianness              : Big
Codec ID                                 : A_AC3
Duration                                 : 1 h 58 min
Bit rate mode                            : Constant
Bit rate                                 : 640 kb/s
Channel(s)                               : 6 channels
Channel positions                        : Front: L C R, Side: L R, LFE
Sampling rate                            : 48.0 kHz
Frame rate                               : 31.250 FPS (1536 SPF)
Bit depth                                : 16 bits
Compression mode                         : Lossy
Delay relative to video                  : 2 s 380 ms
Stream size                              : 542 MiB (4%)
Language                                 : German
Service kind                             : Complete Main
Default                                  : Yes
Forced                                   : Yes

Audio #2
ID                                       : 3
Format                                   : AC-3
Format/Info                              : Audio Coding 3
Format settings, Endianness              : Big
Codec ID                                 : A_AC3
Duration                                 : 1 h 57 min
Bit rate mode                            : Constant
Bit rate                                 : 384 kb/s
Channel(s)                               : 6 channels
Channel positions                        : Front: L C R, Side: L R, LFE
Sampling rate                            : 48.0 kHz
Frame rate                               : 31.250 FPS (1536 SPF)
Bit depth                                : 16 bits
Compression mode                         : Lossy
Delay relative to video                  : -274 ms
Stream size                              : 324 MiB (3%)
Language                                 : English
Service kind                             : Complete Main
Default                                  : No
Forced                                   : No

Menu
00:00:00.000                             : en:1
00:06:50.000                             : en:2
00:11:41.000                             : en:3
00:17:28.000                             : en:4
00:24:04.000                             : en:5
00:30:42.000                             : en:6
00:35:42.000                             : en:7
00:41:38.000                             : en:8
00:46:55.000                             : en:9
00:53:42.000                             : en:10
00:59:38.000                             : en:11
01:04:50.000                             : en:12
01:09:58.000                             : en:13
01:16:50.000                             : en:14
01:21:50.000                             : en:15
01:27:41.000                             : en:16
01:32:56.000                             : en:17
01:38:41.000                             : en:18
01:44:44.000                             : en:19
01:51:20.000                             : en:20

Passwort: NIMA4K
Hoster: Share-Online, Rapidgator

Kommentare (0)

Bitte nutze die Kommentierfunktion ausschließlich für Releasespezifische Kommentare! Alles weitere kann gern in der Shoutbox oder im Forum diskutiert werden.

Kommentar schreiben

Du bist nicht eingeloggt! Bitte registriere Dich hier, um einen Kommentar zu schreiben. Falls Du bereits einen Account hast, kannst du dich hier einloggen.
Noch keine Kommentare vorhanden. Schreibe den ersten Kommentar!