Your first Source for 4K-Releases

Marvels.Daredevil.S02.German.DD51.DL.2160p.NetflixUHD.x264-TVS

Marvel's Daredevil (Staffel 2) (Komplett) Marvels.Daredevil.S02.German.DD51.DL.2160p.NetflixUHD.x264-TVS

Eingetragen am 09.04.2016 um 03:40 Uhr

  • Größe Pro Folge ca. 11,60 GB
  • Codec AVC x264
  • Source Web-DL
  • Sprache Deutsch DD 5.1, English DD 5.1
  • Auflösung 3840x2160
  • Laufzeit pro Folge ca. 50 Minuten
  • Bitrate 29,70 Mb/s

Episoden einzeln ladbar

Matt Murdock ist ein blinder Rechtsanwalt, der im Rahmen seiner Erblindung jedoch andere, übermenschliche Fähigkeiten erworben hat. Tagsüber steht er vor Gericht und kämpft dort für Gerechtigkeit, nachts nimmt er das „Recht“ selbst in die Hand. Sein Gegenspieler ist Kingpin, ein krimineller Geschäftsmann, der die Zügel in New Yorks Stadtteil Hell’s Kitchen in der Hand hält - ein Stadtteil voller Ungerechtigkeit, in dem Matt Murdocks Vater ermordet worden war.

Enthaltene Episoden:

Episode 01: Peng
Episode 02: Hunde zu einer Schießerei
Episode 03: Dein Freund und Helfer
Episode 04: Penny und Dime
Episode 05: Kinbaku
Episode 06: Reue
Episode 07: Semper Fidelis
Episode 08: Schuldig wie die Sünde
Episode 09: Sieben Minuten im Paradies
Episode 10: Bis aufs Blut
Episode 11: .380
Episode 12: Das Dunkle am Ende des Tunnels
Episode 13: Ein kalter Tag in Hell's Kitchen

Trailer

Release Media Infos

General
Unique ID                                : 238704632917520125546999874226370585151 (0xB394D70CDC37E93D913EFCA07A4B223F)
Complete name                            : tvs-mdd-dd51-dl-26p-nfuhd-x264-201.mkv
Format                                   : Matroska
Format version                           : Version 4 / Version 2
File size                                : 9.98 GiB
Duration                                 : 48mn 4s
Overall bit rate                         : 29.7 Mbps
Encoded date                             : UTC 2016-04-06 18:14:39
Writing application                      : mkvmerge v9.0.1 ('Obstacles') 64bit
Writing library                          : libebml v1.3.3 + libmatroska v1.4.4
DURATION                                 : 00:48:04.674000000
NUMBER_OF_FRAMES                         : 69163
NUMBER_OF_BYTES                          : 10440844467
_STATISTICS_WRITING_APP                  : mkvmerge v9.0.1 ('Obstacles') 64bit
_STATISTICS_WRITING_DATE_UTC             : 2016-04-06 18:14:39
_STATISTICS_TAGS                         : BPS DURATION NUMBER_OF_FRAMES NUMBER_OF_BYTES

Video
ID                                       : 1
Format                                   : AVC
Format/Info                              : Advanced Video Codec
Format profile                           : [email protected]
Format settings, CABAC                   : Yes
Format settings, ReFrames                : 5 frames
Codec ID                                 : V_MPEG4/ISO/AVC
Duration                                 : 48mn 4s
Bit rate                                 : 28.4 Mbps
Width                                    : 3 840 pixels
Height                                   : 2 160 pixels
Display aspect ratio                     : 16:9
Frame rate mode                          : Constant
Frame rate                               : 23.976 fps
Color space                              : YUV
Chroma subsampling                       : 4:2:0
Bit depth                                : 8 bits
Scan type                                : Progressive
Bits/(Pixel*Frame)                       : 0.143
Stream size                              : 9.53 GiB (95%)
Writing library                          : x264 core 148 r2665 a01e339
Encoding settings                        : cabac=1 / ref=5 / deblock=1:-1:-1 / analyse=0x3:0x133 / me=umh / subme=10 / psy=1 / psy_rd=1.05:0.00 / mixed_ref=1 / me_range=24 / chroma_me=1 / trellis=2 / 8x8dct=1 / cqm=0 / deadzone=21,11 / fast_pskip=1 / chroma_qp_offset=-2 / threads=24 / lookahead_threads=4 / sliced_threads=0 / nr=0 / decimate=1 / interlaced=0 / bluray_compat=0 / constrained_intra=0 / bframes=8 / b_pyramid=2 / b_adapt=2 / b_bias=0 / direct=3 / weightb=1 / open_gop=0 / weightp=2 / keyint=250 / keyint_min=23 / scenecut=40 / intra_refresh=0 / rc_lookahead=60 / rc=crf / mbtree=1 / crf=18.0 / qcomp=0.60 / qpmin=0 / qpmax=69 / qpstep=4 / ip_ratio=1.40 / aq=2:0.90
Default                                  : Yes
Forced                                   : No
Color primaries                          : BT.709
Transfer characteristics                 : BT.709
Matrix coefficients                      : BT.709

Audio #1
ID                                       : 2
Format                                   : AC-3
Format/Info                              : Audio Coding 3
Mode extension                           : CM (complete main)
Format settings, Endianness              : Big
Codec ID                                 : A_AC3
Duration                                 : 48mn 4s
Bit rate mode                            : Constant
Bit rate                                 : 384 Kbps
Channel(s)                               : 6 channels
Channel positions                        : Front: L C R, Side: L R, LFE
Sampling rate                            : 48.0 KHz
Bit depth                                : 16 bits
Compression mode                         : Lossy
Stream size                              : 132 MiB (1%)
Language                                 : German
Default                                  : Yes
Forced                                   : No

Audio #2
ID                                       : 3
Format                                   : AC-3
Format/Info                              : Audio Coding 3
Mode extension                           : CM (complete main)
Format settings, Endianness              : Big
Codec ID                                 : A_AC3
Duration                                 : 48mn 4s
Bit rate mode                            : Constant
Bit rate                                 : 384 Kbps
Channel(s)                               : 6 channels
Channel positions                        : Front: L C R, Side: L R, LFE
Sampling rate                            : 48.0 KHz
Bit depth                                : 16 bits
Compression mode                         : Lossy
Stream size                              : 132 MiB (1%)
Language                                 : English
Default                                  : No
Forced                                   : No

Text #1
ID                                       : 4
Format                                   : UTF-8
Codec ID                                 : S_TEXT/UTF8
Codec ID/Info                            : UTF-8 Plain Text
Title                                    : GER FORCED
Language                                 : German
Default                                  : Yes
Forced                                   : Yes

Text #2
ID                                       : 5
Format                                   : UTF-8
Codec ID                                 : S_TEXT/UTF8
Codec ID/Info                            : UTF-8 Plain Text
Language                                 : German
Default                                  : No
Forced                                   : No

Text #3
ID                                       : 6
Format                                   : UTF-8
Codec ID                                 : S_TEXT/UTF8
Codec ID/Info                            : UTF-8 Plain Text
Language                                 : English
Default                                  : No
Forced                                   : No

Text #4
ID                                       : 7
Format                                   : UTF-8
Codec ID                                 : S_TEXT/UTF8
Codec ID/Info                            : UTF-8 Plain Text
Language                                 : French
Default                                  : No
Forced                                   : No

Text #5
ID                                       : 8
Format                                   : UTF-8
Codec ID                                 : S_TEXT/UTF8
Codec ID/Info                            : UTF-8 Plain Text
Language                                 : Spanish
Default                                  : No
Forced                                   : No

Passwort: NIMA4K
Hoster: Share-Online, Rapidgator

Kommentare (0)

Bitte nutze die Kommentierfunktion ausschließlich für Releasespezifische Kommentare! Alles weitere kann gern in der Shoutbox oder im Forum diskutiert werden.

Kommentar schreiben

Du bist nicht eingeloggt! Bitte registriere Dich hier, um einen Kommentar zu schreiben. Falls Du bereits einen Account hast, kannst du dich hier einloggen.
Noch keine Kommentare vorhanden. Schreibe den ersten Kommentar!