Your first Source for 4K-Releases

TimeScapes.2012.2304p.CineForm.DD5.1.x264-NTb

TimeScapes (2012) TimeScapes.2012.2304p.CineForm.DD5.1.x264-NTb

Eingetragen am 18.08.2016 um 05:10 Uhr

  • Größe 35,10 GB
  • Codec AVC x264
  • Source 4K Cineform HDD
  • Sprache English DD 5.1
  • Auflösung 4096x2304
  • Laufzeit 48 Minuten
  • Bitrate 101,00 Mb/s

For Tom, timelapse started out as a hobby. Braving the conditions, he would camp out in places such as Yosemite, or Joshua Tree National Park, shooting the night sky, then editing the footage and uploading short films to Vimeo.com. People started to take notice, with some of his Vimeo videos racking up hundreds of thousands of views. Simultaneously, Lowe launched the Timescapes.org forum, the largest community of timelapse shooters on the internet, which has grown to over 5,000 members.

This led to a chance encounter on the internet with New Zealand composer and entrepreneur Nigel “John” Stanford. After a brief email conversation, “TimeScapes” the movie was born, with Stanford agreeing to fund the movie and provide Tom with a 4K Red MX digital cinema camera, while Canon USA sponsored the film by providing Lowe with 5.6K 5D Mark II DSLRs and lenses.

Production involved many hardships. Tom slept outdoors for 250 nights, sleeping on cots (without tents) under the stars next to his camera, while timelapse was being captured. During the middle of principle photography on “TimeScapes”, Lowe won the Astronomy Photographer of the year award in 2011, with the above image, 'Blazing Bristlecone' - featuring a 4,000-year-old bristlecone pine tree against the Milky Way. Unbeknownst to the judges, the photo was actually just one frame of a time-lapse movie, which is featured in “TimeScapes”, the movie.

During production, two trailers were released, which went on to gather over 3 million views.

Trailer

Release Media Infos

General
Unique ID                                : 213031114631708396776326048599010593697 (0xA0444CDEDB96CEE989EB22488E2A4BA1)
Complete name                            : TimeScapes.2012.2304p.CineForm.DD5.1.x264-NTb.mkv
Format                                   : Matroska
Format version                           : Version 4 / Version 2
File size                                : 35.1 GiB
Duration                                 : 48mn 22s
Overall bit rate                         : 104 Mbps
Encoded date                             : UTC 2014-02-02 15:05:21
Writing application                      : mkvmerge v6.6.0 ('The Edge Of The In Between') built on Dec  1 2013 17:55:00
Writing library                          : libebml v1.3.0 + libmatroska v1.4.1

Video
ID                                       : 1
Format                                   : AVC
Format/Info                              : Advanced Video Codec
Format profile                           : [email protected]
Format settings, CABAC                   : Yes
Format settings, ReFrames                : 5 frames
Codec ID                                 : V_MPEG4/ISO/AVC
Duration                                 : 48mn 22s
Bit rate                                 : 101 Mbps
Width                                    : 4 096 pixels
Height                                   : 2 304 pixels
Display aspect ratio                     : 16:9
Frame rate mode                          : Constant
Frame rate                               : 23.976 (24000/1001) fps
Color space                              : YUV
Chroma subsampling                       : 4:2:0
Bit depth                                : 8 bits
Scan type                                : Progressive
Bits/(Pixel*Frame)                       : 0.446
Stream size                              : 34.1 GiB (97%)
Writing library                          : x264 core 140 r2377kMod 1ca7bb9
Encoding settings                        : cabac=1 / ref=5 / deblock=1:-3:-3 / analyse=0x3:0x133 / me=tesa / subme=11 / psy=1 / fade_compensate=0.00 / psy_rd=1.00:0.00 / mixed_ref=1 / me_range=48 / chroma_me=1 / trellis=2 / 8x8dct=1 / cqm=0 / deadzone=21,11 / fast_pskip=0 / chroma_qp_offset=-2 / threads=12 / lookahead_threads=3 / sliced_threads=0 / nr=0 / decimate=1 / interlaced=0 / bluray_compat=0 / constrained_intra=0 / fgo=0 / bframes=16 / b_pyramid=2 / b_adapt=2 / b_bias=0 / direct=3 / weightb=1 / open_gop=0 / weightp=2 / keyint=250 / keyint_min=23 / scenecut=40 / intra_refresh=0 / rc=crf / mbtree=0 / crf=15.0000 / qcomp=0.60 / qpmin=0 / qpmax=69 / qpstep=4 / ip_ratio=1.30 / pb_ratio=1.20 / aq=1:0.80 / zones=0,1500,crf=12.5/2000,2600,crf=12.5/2784,3876,crf=12.5/4056,5257,crf=14/10336,10600,crf=14/10601,10805,crf=12.5/11548,11783,crf=12.5/13381,13539,crf=14/17907,18544,crf=12.5/19122,19413,crf=14/20244,20475,crf=14/20734,21166,crf=14/21167,22911,crf=12.5/22912,23167,crf=14/23497,23789,crf=14/24372,24929,crf=12.5/25783,26000,crf=14/29715,29916,crf=12.5/35500,35994,crf=12.5/46275,46343,crf=12.5/54025,55024,crf=12.5/55025,55275,crf=14/68000,69530,crf=12.5
Language                                 : English
Default                                  : Yes
Forced                                   : No

Audio #1
ID                                       : 2
Format                                   : AC-3
Format/Info                              : Audio Coding 3
Mode extension                           : CM (complete main)
Format settings, Endianness              : Big
Codec ID                                 : A_AC3
Duration                                 : 48mn 22s
Bit rate mode                            : Constant
Bit rate                                 : 640 Kbps
Channel(s)                               : 6 channels
Channel positions                        : Front: L C R, Side: L R, LFE
Sampling rate                            : 48.0 KHz
Frame rate                               : 31.250 fps (1536 spf)
Compression mode                         : Lossy
Stream size                              : 221 MiB (1%)
Language                                 : English
Default                                  : Yes
Forced                                   : No

Audio #2
ID                                       : 3
Format                                   : AC-3
Format/Info                              : Audio Coding 3
Mode extension                           : CM (complete main)
Format settings, Endianness              : Big
Codec ID                                 : A_AC3
Duration                                 : 48mn 22s
Bit rate mode                            : Constant
Bit rate                                 : 192 Kbps
Channel(s)                               : 2 channels
Channel positions                        : Front: L R
Sampling rate                            : 48.0 KHz
Frame rate                               : 31.250 fps (1536 spf)
Compression mode                         : Lossy
Stream size                              : 66.4 MiB (0%)
Title                                    : Director's Commentary
Language                                 : English
Default                                  : No
Forced                                   : No

Menu
00:00:00.000                             : en:Chapter 1
00:00:00.375                             : en:Chapter 2
00:01:05.315                             : en:Chapter 3
00:04:28.518                             : en:Chapter 4
00:06:45.447                             : en:Chapter 5
00:10:38.054                             : en:Chapter 6
00:18:13.175                             : en:Chapter 7
00:21:04.638                             : en:Chapter 8
00:25:24.732                             : en:Chapter 9
00:30:27.576                             : en:Chapter 10
00:34:26.481                             : en:Chapter 11
00:36:51.668                             : en:Chapter 12
00:39:45.258                             : en:Chapter 13
00:40:37.810                             : en:Chapter 14
00:41:39.247                             : en:Chapter 15
00:43:43.663                             : en:Chapter 16

Passwort: NIMA4K
Hoster: Share-online, Uploaded

Kommentare (13)

Bitte nutze die Kommentierfunktion ausschließlich für Releasespezifische Kommentare! Alles weitere kann gern in der Shoutbox oder im Forum diskutiert werden.

Kommentar schreiben

Offlinedateien werden vom System automatisch erkannt und der Reupload angestoßen. Schau am besten in ein paar Stunden wieder rein :)
CAPTCHA Image

Tikla 03.10.2016 - 21:12 Uhr

habe das den Sony ZD9 und kann es kaum anschauen, andauernd hänger, das kann doch nicht sein?

Nickname 02.09.2016 - 11:57 Uhr

Samsung JU6550 mit Plex läuft

Promo81 27.08.2016 - 15:56 Uhr

Auf meinem ue55ks9000 läuft es super. Kann aber auch meinem q10pro liegen. Kurz reingeschaut und woww was für ein Bild.
Ein fettes Danke

Promo81 22.08.2016 - 14:20 Uhr

Wäre super gewesen wenn das Sample auch über share verfügbar wäre. Dann würde ich es ausprobieren

Bill 21.08.2016 - 10:17 Uhr

65su9000 - "Die ausgewählte Datei wird derzeit nicht unterstützt"

somebody 20.08.2016 - 19:46 Uhr

LG OLED 55 E6D - läuft.

Mensch 19.08.2016 - 04:03 Uhr

Samsung JS8500 - nope.

kocher 18.08.2016 - 20:03 Uhr

LG 65UF8609 + Himedia Q10 pro = läuft ;-)

Sea 18.08.2016 - 18:24 Uhr

Shield TV mit Plex kommt auch nicht damit klar. Danke für den Upload, dass wird mein Referenz Video, wer das abspielt kann fast alles. :)

Klaus 18.08.2016 - 17:31 Uhr

LG UB 950v auch nicht. Kann man denn mit der q10pro gucken ?

justyy 18.08.2016 - 17:02 Uhr

läuft nicht aufm samsung ks9090

Schlusenbach 18.08.2016 - 07:57 Uhr

@ Klaus
Merci für den Tip, hatte gar nicht auf die Auflösung geachtet.

Klaus 18.08.2016 - 06:26 Uhr

Unbedingt vorher das sample laden. Nicht jeder TV kommt mit der Auflösung klar