Your first Source for 4K-Releases

Marvels.Daredevil.S02.2160p.NF.WEBRip.DD5.1.x264-iON

Marvel's Daredevil (Season 2) (Complete) Marvels.Daredevil.S02.2160p.NF.WEBRip.DD5.1.x264-iON

Eingetragen am 04.04.2016 um 05:02 Uhr

  • Größe Pro Folge ca. 12,60 GB
  • Codec AVC x264
  • Source Web-DL
  • Sprache English DD 5.1
  • Auflösung 3840x2160
  • Laufzeit pro Folge ca. 50 Minuten
  • Bitrate 28,40 Mb/s

Episoden einzeln ladbar

Matt Murdock was blinded in a tragic accident as a boy, but imbued with extraordinary senses. Murdock sets up practice in his old neighborhood of Hell's Kitchen, New York, where he now fights against injustice as a respected lawyer by day and as the masked vigilante Daredevil by night.

Enthaltene Episoden:

Episode 01: Bang
Episode 02: Dogs to a Gunfight
Episode 03: New York's Finest
Episode 04: Penny and Dime
Episode 05: Kinbaku
Episode 06: Regrets Only
Episode 07: Semper Fidelis
Episode 08: Guilty As Sin
Episode 09: Seven Minutes in Heaven
Episode 10: The Man in the Box
Episode 11: .380
Episode 12: The Dark at the End of the Tunnel
Episode 13: A Cold Day in Hell's Kitchen

Trailer

Release Media Infos

[URL=http://imagecurl.com/viewer.php?file=29347972804681476487.png][IMG]http://imagecurl.com/images/29347972804681476487_thumb.png[/IMG][/URL]
[URL=http://imagecurl.com/viewer.php?file=95993097230180755087.png][IMG]http://imagecurl.com/images/95993097230180755087_thumb.png[/IMG][/URL]
[URL=http://imagecurl.com/viewer.php?file=66657709389061485494.png][IMG]http://imagecurl.com/images/66657709389061485494_thumb.png[/IMG][/URL]
[URL=http://imagecurl.com/viewer.php?file=86280328040282253676.png][IMG]http://imagecurl.com/images/86280328040282253676_thumb.png[/IMG][/URL]
[URL=http://imagecurl.com/viewer.php?file=58008292910597320798.png][IMG]http://imagecurl.com/images/58008292910597320798_thumb.png[/IMG][/URL]
[URL=http://imagecurl.com/viewer.php?file=51168336190892642022.png][IMG]http://imagecurl.com/images/51168336190892642022_thumb.png[/IMG][/URL]



[mediainfo]
Video
ID                                       : 1
Format                                   : AVC
Format/Info                              : Advanced Video Codec
Format profile                           : [email protected]
Format settings, CABAC                   : Yes
Format settings, ReFrames                : 5 frames
Codec ID                                 : V_MPEG4/ISO/AVC
Duration                                 : 59mn 11s
Bit rate                                 : 41.4 Mbps
Width                                    : 3 840 pixels
Height                                   : 2 160 pixels
Display aspect ratio                     : 16:9
Frame rate mode                          : Constant
Frame rate                               : 23.976 (24000/1001) fps
Color space                              : YUV
Chroma subsampling                       : 4:2:0
Bit depth                                : 8 bits
Scan type                                : Progressive
Bits/(Pixel*Frame)                       : 0.208
Stream size                              : 17.1 GiB (99%)
Writing library                          : x264 core 148 r2665 a01e339
Encoding settings                        : cabac=1 / ref=5 / deblock=1:-1:-1 / analyse=0x3:0x133 / me=umh / subme=10 / psy=1 / psy_rd=1.05:0.00 / mixed_ref=1 / me_range=24 / chroma_me=1 / trellis=2 / 8x8dct=1 / cqm=0 / deadzone=21,11 / fast_pskip=1 / chroma_qp_offset=-2 / threads=24 / lookahead_threads=4 / sliced_threads=0 / nr=0 / decimate=1 / interlaced=0 / bluray_compat=0 / constrained_intra=0 / bframes=8 / b_pyramid=2 / b_adapt=2 / b_bias=0 / direct=3 / weightb=1 / open_gop=0 / weightp=2 / keyint=250 / keyint_min=23 / scenecut=40 / intra_refresh=0 / rc_lookahead=60 / rc=crf / mbtree=1 / crf=18.0 / qcomp=0.60 / qpmin=0 / qpmax=69 / qpstep=4 / ip_ratio=1.40 / aq=2:0.90
Default                                  : Yes
Forced                                   : No
Color range                              : Limited
Color primaries                          : BT.709
Transfer characteristics                 : BT.709
Matrix coefficients                      : BT.709

Audio
ID                                       : 2
Format                                   : AC-3
Format/Info                              : Audio Coding 3
Mode extension                           : CM (complete main)
Format settings, Endianness              : Big
Codec ID                                 : A_AC3
Duration                                 : 59mn 11s
Bit rate mode                            : Constant
Bit rate                                 : 384 Kbps
Channel(s)                               : 6 channels
Channel positions                        : Front: L C R, Side: L R, LFE
Sampling rate                            : 48.0 KHz
Frame rate                               : 31.250 fps (1536 spf)
Compression mode                         : Lossy
Stream size                              : 163 MiB (1%)
Language                                 : English
Default                                  : Yes
Forced                                   : No

Text #1
ID                                       : 3
Format                                   : UTF-8
Codec ID                                 : S_TEXT/UTF8
Codec ID/Info                            : UTF-8 Plain Text
Duration                                 : 41s 83ms
Bit rate                                 : 38 bps
Count of elements                        : 7
Stream size                              : 198 Bytes (0%)
Title                                    : FORCED
Language                                 : English
Default                                  : Yes
Forced                                   : Yes

Text #2
ID                                       : 4
Format                                   : UTF-8
Codec ID                                 : S_TEXT/UTF8
Codec ID/Info                            : UTF-8 Plain Text
Duration                                 : 57mn 29s
Bit rate                                 : 60 bps
Count of elements                        : 708
Stream size                              : 25.6 KiB (0%)
Language                                 : English
Default                                  : No
Forced                                   : No

Text #3
ID                                       : 5
Format                                   : UTF-8
Codec ID                                 : S_TEXT/UTF8
Codec ID/Info                            : UTF-8 Plain Text
Duration                                 : 58mn 41s
Bit rate                                 : 56 bps
Count of elements                        : 659
Stream size                              : 24.1 KiB (0%)
Language                                 : French
Default                                  : No
Forced                                   : No

Text #4
ID                                       : 6
Format                                   : UTF-8
Codec ID                                 : S_TEXT/UTF8
Codec ID/Info                            : UTF-8 Plain Text
Duration                                 : 57mn 29s
Bit rate                                 : 60 bps
Count of elements                        : 620
Stream size                              : 25.3 KiB (0%)
Language                                 : German
Default                                  : No
Forced                                   : No

Text #5
ID                                       : 7
Format                                   : UTF-8
Codec ID                                 : S_TEXT/UTF8
Codec ID/Info                            : UTF-8 Plain Text
Duration                                 : 57mn 29s
Bit rate                                 : 57 bps
Count of elements                        : 657
Stream size                              : 24.0 KiB (0%)
Language                                 : Spanish
Default                                  : No
Forced                                   : No



[/mediainfo]

Passwort: NIMA4K
Hoster: Share-online, Uploaded

Kommentare (0)

Bitte nutze die Kommentierfunktion ausschließlich für Releasespezifische Kommentare! Alles weitere kann gern in der Shoutbox oder im Forum diskutiert werden.

Kommentar schreiben

Offlinedateien werden vom System automatisch erkannt und der Reupload angestoßen. Schau am besten in ein paar Stunden wieder rein :)
CAPTCHA Image
Noch keine Kommentare vorhanden. Schreibe den ersten Kommentar!