Your first Source for 4K-Releases

The.Amazing.Spider.Man.2.Rise.of.Electro.2014.German.Dubbed.DL.2160p.WEB-DL.x264-NIMA4K

The Amazing Spider Man 2 - Rise of Electro (2014) The.Amazing.Spider.Man.2.Rise.of.Electro.2014.German.Dubbed.DL.2160p.WEB-DL.x264-NIMA4K

Eingetragen am 29.02.2016 um 01:50 Uhr

  • Größe 46,60 GB
  • Codec AVC x264
  • Source Web-DL
  • Sprache Deutsch DD 5.1
  • Auflösung 3840x1606
  • Laufzeit 2 Stunden 21 Minuten
  • Bitrate 45,20 Mb/s

Wie üblich kommt Peter Parker (Andrew Garfield) zu spät zu einer wichtigen Veranstaltung. Seine Freundin Gwen (Emma Stone) wird als Jahrgangsbeste ihres letzten Highschool-Jahres verabschiedet und hält eine Rede, aber Peter hat als Spiderman einfach zu viel zu tun, um sie sich noch anhören zu können. Zudem wünscht Gwen sich, dass Peter gemeinsam mit ihrer Familie feiert, aber dieser fühlt sich an sein Versprechen gegenüber ihrem sterbenden Vater gebunden, Gwen nicht durch sein Superhelden-Dasein zu gefährden. Erbost über sein ständiges Hin und Her macht Gwen Schluss mit ihm.

Währenddessen ziehen dunkle Wolken über dem Oscorp-Building auf, in dem auch Gwen ein Praktikum macht. Max Dillon (Jamie Foxx), ein vereinsamter Außenseiter, der für Osbourne als Elektronik-Ingenieur arbeitet, muss alleine eine Havarie an einer Elektroleitung beseitigen und stirbt scheinbar bei einem unvorhergesehenen Zwischenfall. Harry Osbourne (Dane DeHaan), ein früherer Schulfreund von Peter, kehrt nach Jahren im Ausland wieder nach New York zurück, um mitzuerleben, wie sein Vater an einer unheilbaren Krankheit stirbt, die er von ihm geerbt hat. Er will sich diesem Schicksal nicht hingeben und erfährt, dass Max Dillon noch lebt. Ihre Begegnung lässt zwei gefährliche Gegner für Spider-Man entstehen...

Trailer

Release Media Infos

General
Unique ID                                : 78519645921170096659165859767817379138 (0x3B12556F5818524F897BA384B3B49D42)
Complete name                            : The.Amazing.Spider.Man.2.Rise.of.Electro.2014.GERMAN.DUBBED.DL.2160p.WEB-DL.x264-NIMA4K.mkv
Format                                   : Matroska
Format version                           : Version 4 / Version 2
File size                                : 46.1 GiB
Duration                                 : 2h 21mn
Overall bit rate                         : 46.6 Mbps
Encoded date                             : UTC 2016-02-22 13:18:36
Writing application                      : mkvmerge v7.3.0 ('Nouages') 64bit built on Oct 23 2014 13:14:01
Writing library                          : libebml v1.3.0 + libmatroska v1.4.1
DURATION                                 : 02:20:30.462000000
NUMBER_OF_FRAMES                         : 2784
NUMBER_OF_BYTES                          : 123752
_STATISTICS_WRITING_APP                  : mkvmerge v7.3.0 ('Nouages') 64bit built on Oct 23 2014 13:14:01
_STATISTICS_WRITING_DATE_UTC             : 2016-02-22 13:18:36
_STATISTICS_TAGS                         : BPS DURATION NUMBER_OF_FRAMES NUMBER_OF_BYTES

Video
ID                                       : 1
Format                                   : AVC
Format/Info                              : Advanced Video Codec
Format profile                           : [email protected]
Format settings, CABAC                   : Yes
Format settings, ReFrames                : 5 frames
Codec ID                                 : V_MPEG4/ISO/AVC
Duration                                 : 2h 21mn
Bit rate                                 : 45.2 Mbps
Width                                    : 3 840 pixels
Height                                   : 1 606 pixels
Display aspect ratio                     : 2.40:1
Frame rate mode                          : Constant
Frame rate                               : 23.976 fps
Color space                              : YUV
Chroma subsampling                       : 4:2:0
Bit depth                                : 8 bits
Scan type                                : Progressive
Bits/(Pixel*Frame)                       : 0.306
Stream size                              : 44.7 GiB (97%)
Writing library                          : x264 core 146 r2538 121396c
Encoding settings                        : cabac=1 / ref=5 / deblock=1:-2:-2 / analyse=0x3:0x133 / me=umh / subme=10 / psy=1 / psy_rd=1.15:0.00 / mixed_ref=1 / me_range=48 / chroma_me=1 / trellis=2 / 8x8dct=1 / cqm=0 / deadzone=21,11 / fast_pskip=1 / chroma_qp_offset=-2 / threads=12 / lookahead_threads=2 / sliced_threads=0 / nr=0 / decimate=0 / interlaced=0 / bluray_compat=0 / constrained_intra=0 / bframes=8 / b_pyramid=2 / b_adapt=2 / b_bias=0 / direct=3 / weightb=1 / open_gop=0 / weightp=2 / keyint=240 / keyint_min=23 / scenecut=40 / intra_refresh=0 / rc_lookahead=60 / rc=crf / mbtree=1 / crf=18.0 / qcomp=0.70 / qpmin=0 / qpmax=69 / qpstep=4 / vbv_maxrate=300000 / vbv_bufsize=300000 / crf_max=0.0 / nal_hrd=none / filler=0 / ip_ratio=1.30 / aq=1:0.70
Language                                 : English
Default                                  : Yes
Forced                                   : No
DURATION                                 : 02:21:32.896000000
NUMBER_OF_FRAMES                         : 265403
NUMBER_OF_BYTES                          : 475602176
_STATISTICS_WRITING_APP                  : mkvmerge v7.3.0 ('Nouages') 64bit built on Oct 23 2014 13:14:01
_STATISTICS_WRITING_DATE_UTC             : 2016-02-22 13:18:36
_STATISTICS_TAGS                         : BPS DURATION NUMBER_OF_FRAMES NUMBER_OF_BYTES

Audio
ID                                       : 2
Format                                   : AC-3
Format/Info                              : Audio Coding 3
Mode extension                           : CM (complete main)
Format settings, Endianness              : Big
Codec ID                                 : A_AC3
Duration                                 : 2h 21mn
Bit rate mode                            : Constant
Bit rate                                 : 448 Kbps
Channel(s)                               : 6 channels
Channel positions                        : Front: L C R, Side: L R, LFE
Sampling rate                            : 48.0 KHz
Bit depth                                : 16 bits
Compression mode                         : Lossy
Stream size                              : 454 MiB (1%)
Language                                 : German
Default                                  : Yes
Forced                                   : Yes

Text #1
ID                                       : 3
Format                                   : UTF-8
Codec ID                                 : S_TEXT/UTF8
Codec ID/Info                            : UTF-8 Plain Text
Title                                    : Sub-full
Language                                 : English
Default                                  : No
Forced                                   : No

Text #2
ID                                       : 4
Format                                   : UTF-8
Codec ID                                 : S_TEXT/UTF8
Codec ID/Info                            : UTF-8 Plain Text
Title                                    : Sub-SDH
Language                                 : English
Default                                  : No
Forced                                   : No

Text #3
ID                                       : 5
Format                                   : UTF-8
Codec ID                                 : S_TEXT/UTF8
Codec ID/Info                            : UTF-8 Plain Text
Title                                    : Sub-SDH-COLORED
Language                                 : English
Default                                  : No
Forced                                   : No

Text #4
ID                                       : 6
Format                                   : UTF-8
Codec ID                                 : S_TEXT/UTF8
Codec ID/Info                            : UTF-8 Plain Text
Title                                    : Sub-Commentary
Language                                 : English
Default                                  : No
Forced                                   : No

Menu
00:00:00.000                             : en:00:00:00.000
00:07:05.342                             : en:00:07:05.342
00:14:28.201                             : en:00:14:28.201
00:20:13.838                             : en:00:20:13.838
00:29:27.099                             : en:00:29:27.099
00:39:02.590                             : en:00:39:02.590
00:50:56.804                             : en:00:50:56.804
00:59:52.756                             : en:00:59:52.756
01:08:53.129                             : en:01:08:53.129
01:16:19.950                             : en:01:16:19.950
01:25:27.706                             : en:01:25:27.706
01:35:23.259                             : en:01:35:23.259
01:41:30.334                             : en:01:41:30.334
01:49:18.343                             : en:01:49:18.343
01:57:00.639                             : en:01:57:00.639
02:04:44.352                             : en:02:04:44.352

Passwort: NIMA4K
Hoster: Share-online, Uploaded

Kommentare (0)

Bitte nutze die Kommentierfunktion ausschließlich für Releasespezifische Kommentare! Alles weitere kann gern in der Shoutbox oder im Forum diskutiert werden.

Kommentar schreiben

Offlinedateien werden vom System automatisch erkannt und der Reupload angestoßen. Schau am besten in ein paar Stunden wieder rein :)
CAPTCHA Image
Noch keine Kommentare vorhanden. Schreibe den ersten Kommentar!