Your first Source for 4K-Releases

Altered.Carbon.S01.German.DD51.DL.2160p.NetflixUHD.HDR.x265-4SJ

Altered Carbon - Das Unsterblichkeitsprogramm (Staffel 1) (Komplett) Altered.Carbon.S01.German.DD51.DL.2160p.NetflixUHD.HDR.x265-4SJ

Eingetragen am 08.02.2018 um 03:12 Uhr

  • Größe Pro Folge ca. 9,21 GB
  • Codec HEVC x265
  • Source WebRip
  • Sprache Deutsch Dolby Digital 5.1 / Englisch Dolby Digital Plus 5.1 + Atmos
  • Auflösung 3840x1920
  • Laufzeit Pro Folge ca. 60 Min
  • Bitrate 20,00 Mb/s

Episoden einzeln ladbar

Nachdem er 250 Jahre auf Eis gelegen hat, ist ein Gefangener nun in einem neuen Körper zurück. Um seine Freiheit zu erlangen, muss er einen ungewöhnlichen Mordfall lösen.

Enthaltene Episoden:

Episode 01: Goldenes Gift
Episode 02: Mord in der Hochzeitsnacht
Episode 03: Ein einsamer Ort
Episode 04: Die Macht des Bösen
Episode 05: Der falsche Mann
Episode 06: Man with My Face
Episode 07: Nora Inu
Episode 08: Vor dem neuen Tag
Episode 09: Gefährliche Liebe
Episode 10: Die Killer

Trailer

Release Media Infos

General
Unique ID                                : 288354992451701911398505643427087371889 (0xD8EF26C5ED5A7561EA37AA00A465CE71)
Complete name                            : Altered.Carbon.S01E01.German.DD51.DL.2160p.NetflixUHD.HDR.x265-4SJ.mkv
Format                                   : Matroska
Format version                           : Version 4 / Version 2
File size                                : 9.21 GiB
Duration                                 : 58 min 53 s
Overall bit rate                         : 22.4 Mb/s
Encoded date                             : UTC 2018-02-07 11:55:19
Writing application                      : mkvmerge v20.0.0 ('I Am The Sun') 64-bit
Writing library                          : libebml v1.3.5 + libmatroska v1.4.8

Video
ID                                       : 1
Format                                   : HEVC
Format/Info                              : High Efficiency Video Coding
Format profile                           : Main [email protected]@Main
Codec ID                                 : V_MPEGH/ISO/HEVC
Duration                                 : 57 min 56 s
Bit rate                                 : 21.9 Mb/s
Width                                    : 3 840 pixels
Height                                   : 1 920 pixels
Display aspect ratio                     : 2.000
Frame rate mode                          : Constant
Frame rate                               : 23.976 (24000/1001) FPS
Color space                              : YUV
Chroma subsampling                       : 4:2:0
Bit depth                                : 10 bits
Bits/(Pixel*Frame)                       : 0.124
Stream size                              : 8.87 GiB (96%)
Writing library                          : x265 2.6+27-2f3c4158cf35:[Windows][GCC 6.3.0][64 bit] 10bit
Encoding settings                        : cpuid=1173503 / frame-threads=4 / numa-pools=28 / wpp / no-pmode / no-pme / no-psnr / no-ssim / log-level=2 / input-csp=1 / input-res=3840x1920 / interlace=0 / total-frames=83354 / level-idc=0 / high-tier=1 / uhd-bd=0 / ref=5 / no-allow-non-conformance / repeat-headers / annexb / no-aud / no-hrd / info / hash=0 / no-temporal-layers / open-gop / min-keyint=23 / keyint=250 / gop-lookahead=0 / bframes=8 / b-adapt=2 / b-pyramid / bframe-bias=0 / rc-lookahead=40 / lookahead-slices=0 / scenecut=40 / radl=0 / no-intra-refresh / ctu=64 / min-cu-size=8 / rect / amp / max-tu-size=32 / tu-inter-depth=3 / tu-intra-depth=3 / limit-tu=4 / rdoq-level=2 / dynamic-rd=0.00 / no-ssim-rd / signhide / no-tskip / nr-intra=0 / nr-inter=0 / no-constrained-intra / strong-intra-smoothing / max-merge=4 / limit-refs=1 / limit-modes / me=3 / subme=5 / merange=57 / temporal-mvp / weightp / weightb / no-analyze-src-pics / deblock=-3:-3 / sao / no-sao-non-deblock / rd=6 / no-early-skip / rskip / no-fast-intra / no-tskip-fast / no-cu-lossless / b-intra / no-splitrd-skip / rdpenalty=0 / psy-rd=2.00 / psy-rdoq=1.00 / no-rd-refine / no-lossless / cbqpoffs=0 / crqpoffs=0 / rc=crf / crf=20.0 / qcomp=0.80 / qpstep=4 / stats-write=0 / stats-read=0 / ipratio=1.40 / pbratio=1.30 / aq-mode=3 / aq-strength=1.00 / cutree / zone-count=0 / no-strict-cbr / qg-size=16 / no-rc-grain / qpmax=69 / qpmin=0 / no-const-vbv / sar=0 / overscan=0 / videoformat=5 / range=0 / colorprim=9 / transfer=16 / colormatrix=9 / chromaloc=0 / display-window=0 / master-display=G(13250,34500)B(7500,3000)R(34000,16000)WP(15635,16450)L(40000000,50) / max-cll=5847,1355 / min-luma=0 / max-luma=1023 / log2-max-poc-lsb=8 / vui-timing-info / vui-hrd-info / slices=1 / no-opt-qp-pps / no-opt-ref-list-length-pps / no-multi-pass-opt-rps / scenecut-bias=0.05 / no-opt-cu-delta-qp / no-aq-motion / hdr / no-hdr-opt / no-dhdr10-opt / analysis-save=(null) / analysis-load=(null) / analysis-reuse-level=5 / scale-factor=0 / refine-intra=0 / refine-inter=0 / refine-mv=0 / no-limit-sao / ctu-info=0 / no-lowpass-dct / refine-mv-type=0 / copy-pic=1
Default                                  : Yes
Forced                                   : No
Color range                              : Limited
Color primaries                          : BT.2020
Transfer characteristics                 : PQ
Matrix coefficients                      : BT.2020 non-constant
Mastering display color primaries        : R: x=0.680000 y=0.320000, G: x=0.265000 y=0.690000, B: x=0.150000 y=0.060000, White point: x=0.312700 y=0.329000
Mastering display luminance              : min: 0.0050 cd/m2, max: 4000.0000 cd/m2
Maximum Content Light Level              : 5847 cd/m2
Maximum Frame-Average Light Level        : 1355 cd/m2

Audio #1
ID                                       : 2
Format                                   : AC-3
Format/Info                              : Audio Coding 3
Format settings, Endianness              : Big
Codec ID                                 : A_AC3
Duration                                 : 58 min 53 s
Bit rate mode                            : Constant
Bit rate                                 : 384 kb/s
Channel(s)                               : 6 channels
Channel positions                        : Front: L C R, Side: L R, LFE
Sampling rate                            : 48.0 kHz
Frame rate                               : 31.250 FPS (1536 SPF)
Bit depth                                : 16 bits
Compression mode                         : Lossy
Stream size                              : 162 MiB (2%)
Language                                 : German
Service kind                             : Complete Main
Default                                  : Yes
Forced                                   : No

Audio #2
ID                                       : 3
Format                                   : E-AC-3
Format/Info                              : Enhanced Audio Coding 3
Format profile                           : E-AC-3+Atmos / E-AC-3
Format settings, Endianness              : Big
Codec ID                                 : A_EAC3
Duration                                 : 58 min 2 s
Bit rate mode                            : Constant
Bit rate                                 : 448 kb/s
Channel(s)                               : 15 objects / 6 channels
Channel positions                        : 15 objects / Front: L C R, Side: L R, LFE
Sampling rate                            : 48.0 kHz
Frame rate                               : 187.500 FPS (256 SPF)
Compression mode                         : Lossy
Stream size                              : 186 MiB (2%)
Language                                 : English
Service kind                             : Complete Main
Default                                  : No
Forced                                   : No

Text #1
ID                                       : 4
Format                                   : UTF-8
Codec ID                                 : S_TEXT/UTF8
Codec ID/Info                            : UTF-8 Plain Text
Duration                                 : 50 min 19 s
Bit rate                                 : 1 b/s
Count of elements                        : 26
Stream size                              : 497 Bytes (0%)
Title                                    : Forced
Language                                 : German
Default                                  : Yes
Forced                                   : Yes

Text #2
ID                                       : 5
Format                                   : UTF-8
Codec ID                                 : S_TEXT/UTF8
Codec ID/Info                            : UTF-8 Plain Text
Duration                                 : 55 min 57 s
Bit rate                                 : 60 b/s
Count of elements                        : 706
Stream size                              : 25.0 KiB (0%)
Language                                 : German
Default                                  : No
Forced                                   : No

Text #3
ID                                       : 6
Format                                   : UTF-8
Codec ID                                 : S_TEXT/UTF8
Codec ID/Info                            : UTF-8 Plain Text
Duration                                 : 25 min 48 s
Bit rate                                 : 1 b/s
Count of elements                        : 9
Stream size                              : 248 Bytes (0%)
Title                                    : Forced
Language                                 : English
Default                                  : No
Forced                                   : Yes

Text #4
ID                                       : 7
Format                                   : UTF-8
Codec ID                                 : S_TEXT/UTF8
Codec ID/Info                            : UTF-8 Plain Text
Duration                                 : 54 min 57 s
Bit rate                                 : 66 b/s
Count of elements                        : 723
Stream size                              : 26.7 KiB (0%)
Language                                 : English
Default                                  : No
Forced                                   : No

Text #5
ID                                       : 8
Format                                   : UTF-8
Codec ID                                 : S_TEXT/UTF8
Codec ID/Info                            : UTF-8 Plain Text
Duration                                 : 57 min 24 s
Bit rate                                 : 72 b/s
Count of elements                        : 828
Stream size                              : 30.6 KiB (0%)
Title                                    : SDH
Language                                 : English
Default                                  : No
Forced                                   : No

Passwort: NIMA4K
Hoster: Share-Online, Rapidgator

Kommentare (2)

Bitte nutze die Kommentierfunktion ausschließlich für Releasespezifische Kommentare! Alles weitere kann gern in der Shoutbox oder im Forum diskutiert werden.

Kommentar schreiben

Du bist nicht eingeloggt! Bitte registriere Dich hier, um einen Kommentar zu schreiben. Falls Du bereits einen Account hast, kannst du dich hier einloggen.

Figaro10 24.03.2018 - 12:20 Uhr

Mir wird nicht angezeigt, dass die Serie in HDR ist. Bei anderen Filmen und Serien aber schon?

CrazynezZ 08.02.2018 - 14:47 Uhr

NIMA4K TEAM ihr seid nach wie vor die ungeschlagenen 4K KÖNIGE. So schnell und in solch einer guten Qualität kommt nirgends was an..... viiiielen Dank :)