Your first Source for 4K-Releases

Chappie.2015.German.Dubbed.DL.2160p.WEB-DL.x265-NIMA4K

Chappie (2015) Chappie.2015.German.Dubbed.DL.2160p.WEB-DL.x265-NIMA4K

Eingetragen am 29.02.2016 um 01:44 Uhr

  • Größe 46,30 GB
  • Codec HEVC x265
  • Source Web-DL
  • Sprache Deutsch DD 5.1
  • Auflösung 3840x1602
  • Laufzeit 2 Stunden 0 Minuten
  • Bitrate 53,60 Mb/s

Chappie (im Original gesprochen von Sharlto Copley) ist ein ausrangierter Polizeiroboter. Der Ingenieur Deon Wilson (Dev Patel) führt an ihm im Geheimen ein technisches Experiment durch. Seiner Meinung nach ist Chappie viel zu schade zum Verschrotten und außerdem das ideale Testobjekt für seine Studien. Doch dann wird Deon – und mit ihm Chappie – von Gangstern entführt. Ninja (Watkin Tudor “Ninja” Jones Jr.) und Yo-landi Vi$$er (Yolandi Visser) adoptieren Chappie in ihre dysfunktionale Verbrecher-Familie hinein und wollen ihn für illegale Zwecke missbrauchen. Und Chappie lernt nicht nur ihre Sprache schneller, als Deon lieb ist.

Trailer

Release Media Infos

General
Unique ID                                : 11975889175646238546356828828504897418 (0x90278EC6A323AAF93D17B92EAAF378A)
Complete name                            : Chappie.2015.GERMAN.DUBBED.DL.2160p.WEB-DL.x265-NIMA4K.mkv
Format                                   : Matroska
Format version                           : Version 4 / Version 2
File size                                : 46.3 GiB
Duration                                 : 2h 0mn
Overall bit rate                         : 55.1 Mbps
Movie name                               : Chappie 2015
Encoded date                             : UTC 2016-02-12 23:11:53
Writing application                      : mkvmerge v7.3.0 ('Nouages') 64bit built on Oct 23 2014 13:14:01
Writing library                          : Lavf55.48.100
DURATION                                 : 02:00:23.508000000
NUMBER_OF_FRAMES                         : 173191
NUMBER_OF_BYTES                          : 49340789669
_STATISTICS_WRITING_APP                  : mkvmerge v7.3.0 ('Nouages') 64bit built on Oct 23 2014 13:14:01
_STATISTICS_WRITING_DATE_UTC             : 2016-02-12 23:11:53
_STATISTICS_TAGS                         : BPS DURATION NUMBER_OF_FRAMES NUMBER_OF_BYTES

Video
ID                                       : 1
Format                                   : HEVC
Format/Info                              : High Efficiency Video Coding
Format profile                           : Main [email protected]
Codec ID                                 : V_MPEGH/ISO/HEVC
Duration                                 : 2h 0mn
Bit rate                                 : 53.6 Mbps
Width                                    : 3 840 pixels
Height                                   : 1 602 pixels
Display aspect ratio                     : 2.40:1
Frame rate mode                          : Constant
Frame rate                               : 23.976 fps
Color space                              : YUV
Chroma subsampling                       : 4:2:0
Bit depth                                : 10 bits
Bits/(Pixel*Frame)                       : 0.363
Stream size                              : 45.0 GiB (97%)
Title                                    : Chappie (2015) - Release for ULTRAHDCLUB
Writing library                          : x265 1.7+474-e1adac00dce8e564:[Windows][GCC 5.2.0][64 bit] 10bit: KG7x [x265.ru]
Encoding settings                        : wpp / ctu=64 / min-cu-size=8 / max-tu-size=32 / tu-intra-depth=1 / tu-inter-depth=1 / me=1 / subme=2 / merange=57 / no-rect / no-amp / max-merge=2 / temporal-mvp / no-early-skip / rdpenalty=0 / no-tskip / no-tskip-fast / strong-intra-smoothing / no-lossless / no-cu-lossless / no-constrained-intra / no-fast-intra / open-gop / no-temporal-layers / interlace=0 / keyint=250 / min-keyint=23 / scenecut=40 / rc-lookahead=20 / lookahead-slices=0 / bframes=4 / bframe-bias=0 / b-adapt=2 / ref=3 / limit-refs=0 / weightp / no-weightb / aq-mode=1 / qg-size=16 / aq-strength=1.00 / cbqpoffs=0 / crqpoffs=0 / rd=3 / psy-rd=0.70 / rdoq-level=1 / psy-rdoq=5.00 / signhide / deblock=-2:-2 / no-sao / no-sao-non-deblock / b-pyramid / cutree / rc=crf / crf=17.0 / qcomp=0.80 / qpmin=0 / qpmax=51 / qpstep=4 / ipratio=1.40 / pbratio=1.30
Language                                 : English
Default                                  : Yes
Forced                                   : No
DURATION                                 : 02:00:20.224000000
NUMBER_OF_FRAMES                         : 225632
NUMBER_OF_BYTES                          : 404332544
_STATISTICS_WRITING_APP                  : mkvmerge v7.3.0 ('Nouages') 64bit built on Oct 23 2014 13:14:01
_STATISTICS_WRITING_DATE_UTC             : 2016-02-12 23:11:53
_STATISTICS_TAGS                         : BPS DURATION NUMBER_OF_FRAMES NUMBER_OF_BYTES

Audio
ID                                       : 2
Format                                   : AC-3
Format/Info                              : Audio Coding 3
Mode extension                           : CM (complete main)
Format settings, Endianness              : Big
Codec ID                                 : A_AC3
Duration                                 : 2h 0mn
Bit rate mode                            : Constant
Bit rate                                 : 448 Kbps
Channel(s)                               : 6 channels
Channel positions                        : Front: L C R, Side: L R, LFE
Sampling rate                            : 48.0 KHz
Bit depth                                : 16 bits
Compression mode                         : Lossy
Stream size                              : 386 MiB (1%)
Language                                 : German
Default                                  : Yes
Forced                                   : Yes

Passwort: NIMA4K
Hoster: Share-Online, Rapidgator

Kommentare (3)

Bitte nutze die Kommentierfunktion ausschließlich für Releasespezifische Kommentare! Alles weitere kann gern in der Shoutbox oder im Forum diskutiert werden.

Kommentar schreiben

Du bist nicht eingeloggt! Bitte registriere Dich hier, um einen Kommentar zu schreiben. Falls Du bereits einen Account hast, kannst du dich hier einloggen.

Hannes 25.07.2016 - 19:45 Uhr

Hi, erst mal vielen Dank dafür.
Wird es auch einen Release mit der englischen Tonspur geben?

Joey 24.04.2016 - 13:42 Uhr

Top., vielen Dank. Wir brauchen mehr UHD Rips. Fury Road, Life of Pi und The Revenant wenn der zeitnah released wird

kirk 19.03.2016 - 14:14 Uhr

Super