Your first Source for 4K-Releases

Fuller.House.S01.German.DD51.DL.2160p.NetflixUHD.x264-TVS

Fuller House (Staffel 1) (Komplett) Fuller.House.S01.German.DD51.DL.2160p.NetflixUHD.x264-TVS

Eingetragen am 10.03.2016 um 02:18 Uhr

  • Größe 75,80 GB
  • Codec AVC x264
  • Source Web-DL
  • Sprache Deutsch DD 5.1, English DD 5.1
  • Auflösung 3840x2160
  • Laufzeit ca. 35 Minuten pro Folge
  • Bitrate 31,50 Mb/s

Episoden einzeln ladbar

Die Bewohnerschaft des Tanner-Hauses aus „Full House“ ändert sich in „Fuller House“: Die frisch verwitwete zweifache und zudem noch schwangere Mutter D.J. (Candace Cameron Bure) zieht mit ihrer Schwester Stephanie (Jodie Sweetin) und ihrer besten Freundin Kimmy (Andrea Barber) zusammen. Kimmy ist ebenfalls alleinerziehende Mutter einer Tochter im Teenageralter, Ramona.

Enthaltene Episoden:

Episode 01: Wie in alten Zeiten, fast
Episode 02: Zimmerchen wechsel dich
Episode 03: Das Rudel der Wölfinnen
Episode 04: Auf der Flucht - oder auch nicht
Episode 05: Mighty Max
Episode 06: Mamacita del Amor
Episode 07: Ramonas (fast) perfekter Tag
Episode 08: Geheimnisse, Lügen und Feuerwehrautos
Episode 09: Rosenkrieg
Episode 10: Schlag auf Schlag
Episode 11: Partnerschaften
Episode 12: Das große Date
Episode 13: Es liegt was in der Luft

Trailer

Release Media Infos

General
Unique ID                                : 182558290059881867552185798795160985917 (0x8957729F3C5E62F39E8F63E001C4213D)
Complete name                            : tvs-fuller-house-dd51-dl-26p-nfuhd-x264-101.mkv
Format                                   : Matroska
Format version                           : Version 4 / Version 2
File size                                : 7.78 GiB
Duration                                 : 35mn 18s
Overall bit rate                         : 31.6 Mbps
Encoded date                             : UTC 2016-03-07 19:12:35
Writing application                      : mkvmerge v8.8.0 ('Wind at my back') 64bit
Writing library                          : libebml v1.3.3 + libmatroska v1.4.4
DURATION                                 : 00:33:47.025000000
NUMBER_OF_FRAMES                         : 575
NUMBER_OF_BYTES                          : 21448
_STATISTICS_WRITING_APP                  : mkvmerge v8.8.0 ('Wind at my back') 64bit
_STATISTICS_WRITING_DATE_UTC             : 2016-03-07 19:12:35
_STATISTICS_TAGS                         : BPS DURATION NUMBER_OF_FRAMES NUMBER_OF_BYTES

Video
ID                                       : 1
Format                                   : AVC
Format/Info                              : Advanced Video Codec
Format profile                           : [email protected]
Format settings, CABAC                   : Yes
Format settings, ReFrames                : 5 frames
Codec ID                                 : V_MPEG4/ISO/AVC
Duration                                 : 35mn 18s
Bit rate                                 : 29.6 Mbps
Width                                    : 3 840 pixels
Height                                   : 2 160 pixels
Display aspect ratio                     : 16:9
Frame rate mode                          : Constant
Frame rate                               : 23.976 fps
Color space                              : YUV
Chroma subsampling                       : 4:2:0
Bit depth                                : 8 bits
Scan type                                : Progressive
Bits/(Pixel*Frame)                       : 0.149
Stream size                              : 7.31 GiB (94%)
Writing library                          : x264 core 148 r2665 a01e339
Encoding settings                        : cabac=1 / ref=5 / deblock=1:-1:-1 / analyse=0x3:0x133 / me=umh / subme=10 / psy=1 / psy_rd=1.05:0.00 / mixed_ref=1 / me_range=24 / chroma_me=1 / trellis=2 / 8x8dct=1 / cqm=0 / deadzone=21,11 / fast_pskip=1 / chroma_qp_offset=-2 / threads=24 / lookahead_threads=4 / sliced_threads=0 / nr=0 / decimate=1 / interlaced=0 / bluray_compat=0 / constrained_intra=0 / bframes=8 / b_pyramid=2 / b_adapt=2 / b_bias=0 / direct=3 / weightb=1 / open_gop=0 / weightp=2 / keyint=250 / keyint_min=23 / scenecut=40 / intra_refresh=0 / rc_lookahead=60 / rc=crf / mbtree=1 / crf=17.0 / qcomp=0.60 / qpmin=0 / qpmax=69 / qpstep=4 / ip_ratio=1.40 / aq=2:0.90
Language                                 : German
Default                                  : Yes
Forced                                   : No
Color primaries                          : BT.709
Transfer characteristics                 : BT.709
Matrix coefficients                      : BT.709

Audio #1
ID                                       : 2
Format                                   : AC-3
Format/Info                              : Audio Coding 3
Mode extension                           : CM (complete main)
Format settings, Endianness              : Big
Codec ID                                 : A_AC3
Duration                                 : 35mn 18s
Bit rate mode                            : Constant
Bit rate                                 : 640 Kbps
Channel(s)                               : 6 channels
Channel positions                        : Front: L C R, Side: L R, LFE
Sampling rate                            : 48.0 KHz
Bit depth                                : 16 bits
Compression mode                         : Lossy
Stream size                              : 162 MiB (2%)
Language                                 : German
Default                                  : Yes
Forced                                   : No

Audio #2
ID                                       : 3
Format                                   : AC-3
Format/Info                              : Audio Coding 3
Mode extension                           : CM (complete main)
Format settings, Endianness              : Big
Codec ID                                 : A_AC3
Duration                                 : 35mn 18s
Bit rate mode                            : Constant
Bit rate                                 : 640 Kbps
Channel(s)                               : 6 channels
Channel positions                        : Front: L C R, Side: L R, LFE
Sampling rate                            : 48.0 KHz
Bit depth                                : 16 bits
Compression mode                         : Lossy
Stream size                              : 162 MiB (2%)
Language                                 : English
Default                                  : No
Forced                                   : No

Text #1
ID                                       : 4
Format                                   : UTF-8
Codec ID                                 : S_TEXT/UTF8
Codec ID/Info                            : UTF-8 Plain Text
Language                                 : German
Default                                  : Yes
Forced                                   : No

Text #2
ID                                       : 5
Format                                   : UTF-8
Codec ID                                 : S_TEXT/UTF8
Codec ID/Info                            : UTF-8 Plain Text
Language                                 : German
Default                                  : No
Forced                                   : No

Text #3
ID                                       : 6
Format                                   : UTF-8
Codec ID                                 : S_TEXT/UTF8
Codec ID/Info                            : UTF-8 Plain Text
Language                                 : English
Default                                  : No
Forced                                   : No

Passwort: NIMA4K
Hoster: Share-online, Uploaded

Kommentare (0)

Bitte nutze die Kommentierfunktion ausschließlich für Releasespezifische Kommentare! Alles weitere kann gern in der Shoutbox oder im Forum diskutiert werden.

Kommentar schreiben

Du bist nicht eingeloggt! Bitte registriere Dich hier, um einen Kommentar zu schreiben. Falls Du bereits einen Account hast, kannst du dich hier einloggen.
Noch keine Kommentare vorhanden. Schreibe den ersten Kommentar!