Your first Source for 4K-Releases

Looper.2012.German.Dubbed.DL.2160p.WEB-DL.x264-NIMA4K

Looper (2012) Looper.2012.German.Dubbed.DL.2160p.WEB-DL.x264-NIMA4K

Eingetragen am 28.02.2016 um 23:41 Uhr

  • Größe 51,00 GB
  • Codec AVC x264
  • Source Web-DL
  • Sprache Deutsch DD 5.1
  • Auflösung 3840x1606
  • Laufzeit 1 Stunde 58 Minuten
  • Bitrate 59,80 Mb/s

2040 arbeitet Joe (Joseph Gordon-Levitt) erfolgreich als ein sogenannter Looper. Das sind Attentäter, deren Auftrag es ist, per Zeitreise aus dem Jahre 2070 zurückgeschickte Menschen zu töten. In den 70er Jahren sind Zeitreisen verboten und werden nur noch im Geheimen durchgeführt. Verbrecherorganisationen nutzen diese illegale Methode immer wieder, um ihre Opfer in die Vergangenheit zurückzuschicken, damit die Looper sie gegen einen horrenden Batzen Geld töten und damit die Existenz der Betroffenen gänzlich auslöschen. Und genau darin ist Joe ein Ass, er zählt zu den Besten seines Faches und verfolgt nur eine Regel: Nicht versagen - denn das sehen seine Auftraggeber gar nicht gern. Das ist ihm bisher auch noch nie passiert. Doch sein nächster Auftrag wird zur Bewährungsprobe, denn plötzlich steht sein zukünftiges Ich (Bruce Willis) vor ihm. Ein kurzes Zögern und die Liquidierung geht schief: Seine futuristische Version schafft es zu entkommen. Nun beginnt eine Jagd um Leben und Tod...

Trailer

Release Media Infos

General
Unique ID                                : 267162719504621619648621201253330183015 (0xC8FDAB0BFEDDA0311BDAE2B6B5C5E367)
Complete name                            : Looper.2012.GERMAN.DUBBED.DL.2160p.WEB-DL.x264-NIMA4K.mkv
Format                                   : Matroska
Format version                           : Version 4 / Version 2
File size                                : 51.0 GiB
Duration                                 : 1h 58mn
Overall bit rate                         : 61.5 Mbps
Movie name                               : Looper 2012
Encoded date                             : UTC 2016-02-15 04:15:38
Writing application                      : mkvmerge v7.3.0 ('Nouages') 64bit built on Oct 23 2014 13:14:01
Writing library                          : libebml v1.3.0 + libmatroska v1.4.1
DURATION                                 : 01:53:02.298000000
NUMBER_OF_FRAMES                         : 1205
NUMBER_OF_BYTES                          : 38310
_STATISTICS_WRITING_APP                  : mkvmerge v7.3.0 ('Nouages') 64bit built on Oct 23 2014 13:14:01
_STATISTICS_WRITING_DATE_UTC             : 2016-02-15 04:15:38
_STATISTICS_TAGS                         : BPS DURATION NUMBER_OF_FRAMES NUMBER_OF_BYTES

Video
ID                                       : 1
Format                                   : AVC
Format/Info                              : Advanced Video Codec
Format profile                           : [email protected]
Format settings, CABAC                   : Yes
Format settings, ReFrames                : 5 frames
Codec ID                                 : V_MPEG4/ISO/AVC
Duration                                 : 1h 58mn
Bit rate                                 : 59.8 Mbps
Width                                    : 3 840 pixels
Height                                   : 1 606 pixels
Display aspect ratio                     : 2.40:1
Frame rate mode                          : Constant
Frame rate                               : 23.976 fps
Color space                              : YUV
Chroma subsampling                       : 4:2:0
Bit depth                                : 8 bits
Scan type                                : Progressive
Bits/(Pixel*Frame)                       : 0.404
Stream size                              : 49.7 GiB (97%)
Title                                    : Looper 2012
Writing library                          : x264 core 146 r2538 121396c
Encoding settings                        : cabac=1 / ref=5 / deblock=1:-2:-2 / analyse=0x3:0x133 / me=umh / subme=10 / psy=1 / psy_rd=1.15:0.00 / mixed_ref=1 / me_range=48 / chroma_me=1 / trellis=2 / 8x8dct=1 / cqm=0 / deadzone=21,11 / fast_pskip=1 / chroma_qp_offset=-2 / threads=12 / lookahead_threads=2 / sliced_threads=0 / nr=0 / decimate=0 / interlaced=0 / bluray_compat=0 / constrained_intra=0 / bframes=8 / b_pyramid=2 / b_adapt=2 / b_bias=0 / direct=3 / weightb=1 / open_gop=0 / weightp=2 / keyint=240 / keyint_min=23 / scenecut=40 / intra_refresh=0 / rc_lookahead=60 / rc=crf / mbtree=1 / crf=18.0 / qcomp=0.70 / qpmin=0 / qpmax=69 / qpstep=4 / vbv_maxrate=300000 / vbv_bufsize=300000 / crf_max=0.0 / nal_hrd=none / filler=0 / ip_ratio=1.30 / aq=1:0.70
Language                                 : English
Default                                  : Yes
Forced                                   : No
DURATION                                 : 01:58:48.224000000
NUMBER_OF_FRAMES                         : 222757
NUMBER_OF_BYTES                          : 399180544
_STATISTICS_WRITING_APP                  : mkvmerge v7.3.0 ('Nouages') 64bit built on Oct 23 2014 13:14:01
_STATISTICS_WRITING_DATE_UTC             : 2016-02-15 04:15:38
_STATISTICS_TAGS                         : BPS DURATION NUMBER_OF_FRAMES NUMBER_OF_BYTES

Audio
ID                                       : 4
Format                                   : AC-3
Format/Info                              : Audio Coding 3
Mode extension                           : CM (complete main)
Format settings, Endianness              : Big
Codec ID                                 : A_AC3
Duration                                 : 1h 58mn
Bit rate mode                            : Constant
Bit rate                                 : 448 Kbps
Channel(s)                               : 6 channels
Channel positions                        : Front: L C R, Side: L R, LFE
Sampling rate                            : 48.0 KHz
Bit depth                                : 16 bits
Compression mode                         : Lossy
Stream size                              : 381 MiB (1%)
Language                                 : German
Default                                  : Yes
Forced                                   : Yes

Text #1
ID                                       : 2
Format                                   : UTF-8
Codec ID                                 : S_TEXT/UTF8
Codec ID/Info                            : UTF-8 Plain Text
Language                                 : English
Default                                  : No
Forced                                   : No

Text #2
ID                                       : 3
Format                                   : UTF-8
Codec ID                                 : S_TEXT/UTF8
Codec ID/Info                            : UTF-8 Plain Text
Title                                    : SDH
Language                                 : English
Default                                  : No
Forced                                   : No

Menu
00:00:00.000                             : en:Chapter 1
00:07:27.447                             : en:Chapter 2
00:13:31.684                             : en:Chapter 3
00:21:22.489                             : en:Chapter 4
00:26:48.105                             : en:Chapter 5
00:31:51.200                             : en:Chapter 6
00:41:28.402                             : en:Chapter 7
00:49:33.427                             : en:Chapter 8
00:54:10.413                             : en:Chapter 9
01:00:35.005                             : en:Chapter 10
01:08:09.918                             : en:Chapter 11
01:15:23.350                             : en:Chapter 12
01:23:57.740                             : en:Chapter 13
01:34:25.868                             : en:Chapter 14
01:41:04.432                             : en:Chapter 15
01:46:29.381                             : en:Chapter 16

Passwort: NIMA4K
Hoster: Share-Online, Rapidgator

Kommentare (0)

Bitte nutze die Kommentierfunktion ausschließlich für Releasespezifische Kommentare! Alles weitere kann gern in der Shoutbox oder im Forum diskutiert werden.

Kommentar schreiben

Du bist nicht eingeloggt! Bitte registriere Dich hier, um einen Kommentar zu schreiben. Falls Du bereits einen Account hast, kannst du dich hier einloggen.

Hannes 25.07.2016 - 19:47 Uhr

Hi, auch hier Danke und ich würde mich sehr über ein Release mit englischer Tonspur freuen :)