Your first Source for 4K-Releases

Linkin.Park.-.Live.at.o2.Arena.Berlin.2014.2160p.UHDTV.HEVC-IND

Linkin Park - Live at o2 Arena Berlin (2014) Linkin.Park.-.Live.at.o2.Arena.Berlin.2014.2160p.UHDTV.HEVC-IND

Eingetragen am 07.03.2016 um 01:09 Uhr

  • Größe 22,62 GB
  • Codec HEVC x265
  • Source UHDTV
  • Sprache English DD 2.0
  • Auflösung 3840x
  • Laufzeit 1 Stunde 45 Minuten
  • Bitrate 31,20 Mb/s

Erstes Live- Konzert in der Welt auf Astra 19,2 Grad Ost in Ultra HD ( 3840 x 2160 Pixel) in HEVC -Standard ausgestrahlt werden , bei 50 Bildern pro Sekunde und einer Farbtiefe von 10 Bit .

Linkin Park ist auf der o2 World Berlin am 19. November 2014 zurück, um ihre brandneuen Album "The Hunting Party" zu präsentieren. Das kalifornische Metall - Kernband Of Mice & Men bestätigt wurden sie als Special Guest zu unterstützen.

Mit mehr als 50 Millionen verkauften Tonträgern und über 60 Millionen Facebook - Fans , haben Linkin Park eine der wichtigsten Bands der Musik modernen Rock geworden . Das brillante Crossover aus Rock, Metal , Rap und elektronische Klänge gemacht haben Linkin Park Pioniere einer völlig neuen Genre mit einem treuen und engagierten Fangemeinde . Mehr als eine Million Menschen besuchten die Shows ihrer letzten Tour.

Setlist:
01. Mashup Intro #2
02. Guilty All The Same
03. Given Up
04. Points Of Authority
05. One Step Closer
06. Blackout
07. Papercut
08. Rebellion
09. Runaway
10. Wastelands
11. Castle Of Glass
12. LOATR/SOTD/Iridescent
13. Robot Boy
14. Joe Solo Medley
15. Burn It Down
16. Waiting For The End
17. Final Masquerade
18. Mike Solo Medley
19. Numb
20. In The End
21. Faint
----------------------------------------------------
22. Lost In The Echo
23. New Divide
24. Crawling
25. Until It's Gone
26. What I've Done
27. Bleed It Out

Release Media Infos

General
ID                                       : 1035 (0x40B)
Complete name                            : 01_Linkin Park 20141120 0014 - Astra Ultra HD Demo - instant record.ts
Format                                   : MPEG-TS
File size                                : 88.5 MiB
Duration                                 : 25s 147ms
Overall bit rate mode                    : Variable
Overall bit rate                         : 28.4 Mbps

Video
ID                                       : 210 (0xD2)
Menu ID                                  : 2 (0x2)
Format                                   : HEVC
Format/Info                              : High Efficiency Video Coding
Format profile                           : [email protected]
Codec ID                                 : 36
Duration                                 : 25s 100ms
Bit rate                                 : 26.8 Mbps
Width                                    : 3 840 pixels
Height                                   : 2 160 pixels
Display aspect ratio                     : 16:9
Frame rate                               : 50.000 fps
Color space                              : YUV
Chroma subsampling                       : 4:2:0
Bit depth                                : 8 bits
Bits/(Pixel*Frame)                       : 0.065
Stream size                              : 80.2 MiB (91%)

Audio
ID                                       : 220 (0xDC)
Menu ID                                  : 2 (0x2)
Format                                   : MPEG Audio
Format version                           : Version 1
Format profile                           : Layer 2
Codec ID                                 : 3
Duration                                 : 25s 81ms
Bit rate mode                            : Constant
Bit rate                                 : 192 Kbps
Channel(s)                               : 2 channels
Sampling rate                            : 48.0 KHz
Compression mode                         : Lossy
Delay relative to video                  : -1s 193ms
Stream size                              : 588 KiB (1%)

Menu
ID                                       : 257 (0x101)
Menu ID                                  : 2 (0x2)
Duration                                 : 25s 147ms
List                                     : 210 (0xD2) (HEVC) / 220 (0xDC) (MPEG Audio)

General
ID                                       : 1035 (0x40B)
Complete name                            : 02_Linkin Park20141120 0016 - Astra Ultra HD Demo - instant record.ts
Format                                   : MPEG-TS
File size                                : 1.19 GiB
Duration                                 : 5mn 9s
Overall bit rate mode                    : Variable
Overall bit rate                         : 32.7 Mbps

Video
ID                                       : 210 (0xD2)
Menu ID                                  : 2 (0x2)
Format                                   : HEVC
Format/Info                              : High Efficiency Video Coding
Format profile                           : [email protected]
Codec ID                                 : 36
Duration                                 : 5mn 9s
Bit rate                                 : 30.9 Mbps
Width                                    : 3 840 pixels
Height                                   : 2 160 pixels
Display aspect ratio                     : 16:9
Frame rate                               : 50.000 fps
Color space                              : YUV
Chroma subsampling                       : 4:2:0
Bit depth                                : 8 bits
Bits/(Pixel*Frame)                       : 0.075
Stream size                              : 1.12 GiB (94%)

Audio
ID                                       : 220 (0xDC)
Menu ID                                  : 2 (0x2)
Format                                   : MPEG Audio
Format version                           : Version 1
Format profile                           : Layer 2
Codec ID                                 : 3
Duration                                 : 5mn 9s
Bit rate mode                            : Constant
Bit rate                                 : 192 Kbps
Channel(s)                               : 2 channels
Sampling rate                            : 48.0 KHz
Compression mode                         : Lossy
Delay relative to video                  : -976ms
Stream size                              : 7.09 MiB (1%)

Menu
ID                                       : 257 (0x101)
Menu ID                                  : 2 (0x2)
Duration                                 : 5mn 9s
List                                     : 210 (0xD2) (HEVC) / 220 (0xDC) (MPEG Audio)

General
ID                                       : 1035 (0x40B)
Complete name                            : 03_Linkin Park20141120 0022 - Astra Ultra HD Demo - instant record.ts
Format                                   : MPEG-TS
File size                                : 21.3 GiB
Duration                                 : 1h 37mn
Overall bit rate mode                    : Variable
Overall bit rate                         : 31.2 Mbps

Video
ID                                       : 210 (0xD2)
Menu ID                                  : 2 (0x2)
Format                                   : HEVC
Format/Info                              : High Efficiency Video Coding
Format profile                           : [email protected]
Codec ID                                 : 36
Duration                                 : 1h 37mn
Bit rate                                 : 29.5 Mbps
Width                                    : 3 840 pixels
Height                                   : 2 160 pixels
Display aspect ratio                     : 16:9
Frame rate                               : 50.000 fps
Color space                              : YUV
Chroma subsampling                       : 4:2:0
Bit depth                                : 8 bits
Bits/(Pixel*Frame)                       : 0.071
Stream size                              : 20.2 GiB (94%)

Audio
ID                                       : 220 (0xDC)
Menu ID                                  : 2 (0x2)
Format                                   : MPEG Audio
Format version                           : Version 1
Format profile                           : Layer 2
Codec ID                                 : 3
Duration                                 : 1h 37mn
Bit rate mode                            : Constant
Bit rate                                 : 192 Kbps
Channel(s)                               : 2 channels
Sampling rate                            : 48.0 KHz
Compression mode                         : Lossy
Delay relative to video                  : -1s 201ms
Stream size                              : 134 MiB (1%)

Menu
ID                                       : 257 (0x101)
Menu ID                                  : 2 (0x2)
Duration                                 : 1h 37mn
List                                     : 210 (0xD2) (HEVC) / 220 (0xDC) (MPEG Audio)

Passwort: NIMA4K
Hoster: Share-online, Uploaded

Kommentare (0)

Bitte nutze die Kommentierfunktion ausschließlich für Releasespezifische Kommentare! Alles weitere kann gern in der Shoutbox oder im Forum diskutiert werden.

Kommentar schreiben

Du bist nicht eingeloggt! Bitte registriere Dich hier, um einen Kommentar zu schreiben. Falls Du bereits einen Account hast, kannst du dich hier einloggen.
Noch keine Kommentare vorhanden. Schreibe den ersten Kommentar!