Your first Source for 4K-Releases

Herz.aus.Stahl.2014.German.Dubbed.2160p.WEB-DL.x265-NIMA4K

Herz aus Stahl (2014) Herz.aus.Stahl.2014.German.Dubbed.2160p.WEB-DL.x265-NIMA4K

Eingetragen am 28.02.2016 um 23:06 Uhr

  • Größe 109,00 GB
  • Codec HEVC x265
  • Source Web-DL
  • Sprache Deutsch DD 5.1
  • Auflösung 3840x1608
  • Laufzeit 2 Stunden 14 Minuten
  • Bitrate 113,00 Mb/s

April 1945: Die Alliierten starten im Zweiten Weltkrieg ihre finale Offensive gegen Nazi-Deutschland. Ganz vorne dabei ist ein Sherman-Panzer, der von seiner Crew liebevoll "Fury" getauft wurde. Angeführt wird die fünfköpfige Truppe vom kampferprobten Don "Wardaddy" Collier (Brad Pitt), der schon viele Schlachten geschlagen hat und den Krieg daher bestens kennt. Immer weiter stoßen er und seine Männer (u. a. Shia LaBeouf, Michael Peña und Jon Bernthal) ins feindliche Gebiet vor, wo sie sich bald in einer ausweglosen Lage wiederfinden, zahlenmäßig unterlegen und mit schlechteren Waffen ausgestattet als der Gegner. Zudem ist erst kürzlich ein blutiger Anfänger zum Team gestoßen: der junge Norman Ellison (Logan Lerman). Doch gegen jede Wahrscheinlichkeit wollen die tapferen Männer ein weiteres Mal überleben und Nazi-Deutschland mitten ins Herz treffen…

Trailer

Release Media Infos

General
Unique ID                                : 244796747563855815670561881967580929974 (0xB82A237E0DDB2388E2AFF443B173DFB6)
Complete name                            : Herz.aus.Stahl.2014.GERMAN.DUBBED.2160p.WEB-DL.x265-NIMA4K.mkv
Format                                   : Matroska
Format version                           : Version 4 / Version 2
File size                                : 109 GiB
Duration                                 : 2h 14mn
Overall bit rate                         : 116 Mbps
Encoded date                             : UTC 2016-02-25 12:58:35
Writing application                      : mkvmerge v7.3.0 ('Nouages') 64bit built on Oct 23 2014 13:14:01
Writing library                          : libebml v1.3.0 + libmatroska v1.4.1
DURATION                                 : 02:03:52.474000000
NUMBER_OF_FRAMES                         : 1469
NUMBER_OF_BYTES                          : 42729
_STATISTICS_WRITING_APP                  : mkvmerge v7.3.0 ('Nouages') 64bit built on Oct 23 2014 13:14:01
_STATISTICS_WRITING_DATE_UTC             : 2016-02-25 12:58:35
_STATISTICS_TAGS                         : BPS DURATION NUMBER_OF_FRAMES NUMBER_OF_BYTES

Video
ID                                       : 1
Format                                   : HEVC
Format/Info                              : High Efficiency Video Coding
Codec ID                                 : V_MPEGH/ISO/HEVC
Duration                                 : 2h 14mn
Bit rate                                 : 113 Mbps
Width                                    : 3 840 pixels
Height                                   : 1 608 pixels
Display aspect ratio                     : 2.40:1
Frame rate mode                          : Constant
Frame rate                               : 23.976 fps
Bits/(Pixel*Frame)                       : 0.766
Stream size                              : 107 GiB (98%)
Language                                 : English
Default                                  : Yes
Forced                                   : No
DURATION                                 : 02:14:37.280000000
NUMBER_OF_FRAMES                         : 252415
NUMBER_OF_BYTES                          : 452327680
_STATISTICS_WRITING_APP                  : mkvmerge v7.3.0 ('Nouages') 64bit built on Oct 23 2014 13:14:01
_STATISTICS_WRITING_DATE_UTC             : 2016-02-25 12:58:35
_STATISTICS_TAGS                         : BPS DURATION NUMBER_OF_FRAMES NUMBER_OF_BYTES

Audio
ID                                       : 4
Format                                   : AC-3
Format/Info                              : Audio Coding 3
Mode extension                           : CM (complete main)
Format settings, Endianness              : Big
Codec ID                                 : A_AC3
Duration                                 : 2h 14mn
Bit rate mode                            : Constant
Bit rate                                 : 448 Kbps
Channel(s)                               : 6 channels
Channel positions                        : Front: L C R, Side: L R, LFE
Sampling rate                            : 48.0 KHz
Bit depth                                : 16 bits
Compression mode                         : Lossy
Stream size                              : 431 MiB (0%)
Language                                 : German
Default                                  : Yes
Forced                                   : Yes

Text #1
ID                                       : 2
Format                                   : UTF-8
Codec ID                                 : S_TEXT/UTF8
Codec ID/Info                            : UTF-8 Plain Text
Title                                    : Forced
Language                                 : English
Default                                  : No
Forced                                   : No

Text #2
ID                                       : 3
Format                                   : UTF-8
Codec ID                                 : S_TEXT/UTF8
Codec ID/Info                            : UTF-8 Plain Text
Language                                 : English
Default                                  : No
Forced                                   : No

Menu #1
00:00:00.000                             : en:00:00:00.000
00:07:58.226                             : en:00:07:58.226
00:20:24.681                             : en:00:20:24.681
00:26:38.930                             : en:00:26:38.930
00:37:26.034                             : en:00:37:26.034
00:43:24.059                             : en:00:43:24.059
00:51:59.407                             : en:00:51:59.407
01:01:20.300                             : en:01:01:20.300
01:13:46.546                             : en:01:13:46.546
01:18:29.703                             : en:01:18:29.703
01:26:21.801                             : en:01:26:21.801
01:29:50.426                             : en:01:29:50.426
01:35:39.190                             : en:01:35:39.190
01:48:12.109                             : en:01:48:12.109
01:57:49.979                             : en:01:57:49.979
02:00:41.609                             : en:02:00:41.609

Menu #2
00:00:00.000                             : en:1.
00:07:58.228                             : en:2.
00:20:24.682                             : en:3.
00:26:38.931                             : en:4.
00:37:26.035                             : en:5.
00:43:24.060                             : en:6.
00:51:59.408                             : en:7.
01:01:20.302                             : en:8.
01:13:46.547                             : en:9.
01:18:29.705                             : en:10.
01:26:21.802                             : en:11.
01:29:50.427                             : en:12.
01:35:39.192                             : en:13.
01:48:12.111                             : en:14.
01:57:49.980                             : en:15.
02:00:41.609                             : en:16.

Passwort: NIMA4K
Hoster: Share-online, Uploaded

Kommentare (1)

Bitte nutze die Kommentierfunktion ausschließlich für Releasespezifische Kommentare! Alles weitere kann gern in der Shoutbox oder im Forum diskutiert werden.

Kommentar schreiben

Du bist nicht eingeloggt! Bitte registriere Dich hier, um einen Kommentar zu schreiben. Falls Du bereits einen Account hast, kannst du dich hier einloggen.

kirk 19.03.2016 - 14:13 Uhr

Der Hammer