Your first Source for 4K-Releases

Marvels.Jessica.Jones.S01.German.DD51.DL.2160p.NetflixUHD.x264.-.TVS

Marvel's Jessica Jones (Staffel 1) (Komplett) Marvels.Jessica.Jones.S01.German.DD51.DL.2160p.NetflixUHD.x264.-.TVS

Eingetragen am 05.03.2016 um 15:14 Uhr

  • Größe 157,70 GB
  • Codec AVC x264
  • Source Web-DL
  • Sprache Deutsch DD 5.1, English DD 5.1
  • Auflösung 3840x2160
  • Laufzeit ca. 52 Minuten pro Folge
  • Bitrate 35,90 Mb/s

Episoden einzeln ladbar

„A.K.A. Jessica Jones“ erzählt die Geschichte einer ehemaligen Superheldin Jewel (Krysten Ritter) aka Jessica Jones, die ihr Kostüm aber nach schlechten Erfahrungen und Post-Traumatischem-Stress an den Nagel hängt, um ihr eigenes Detektivbüro zu eröffnen. Nun löst sie normale Fälle, aber auch welche, die sich um Superhelden - und Schurken drehen. Luke Cage (Mike Colter) wird in einigen Episoden bereits eine Rolle spielen, bevor er seine eigene 13-teilige Netflix-Serie bekommt. Jessica Jones lernt den rätselhaften Luke Cage bei einer Ermittlung für einen Fall in New York kennen. Cage verbirgt Geheimnisse, die sich auch auf Jessicas Leben auswirken werden.

Enthaltene Episoden:

Episode 01: Ladies Night
Episode 02: Crush-Syndrom
Episode 03: Es heisst Whisky
Episode 04: 99 Freunde
Episode 05: Das Sandwich hat mich gerettet
Episode 06: Du bist ein Gewinner
Episode 07: Die schlimmsten Perversen
Episode 08: W.W.J.D.
Episode 09: Die Strafecke
Episode 10: 1000 Schnitte
Episode 11: Die Blauen
Episode 12: Hinten anstellen
Episode 13: Laecheln

Trailer

Release Media Infos

General
Unique ID                                : 228702815882273450943751900260716589466 (0xAC0E8F65D0D542759968D6925A25319A)
Format                                   : Matroska
Format version                           : Version 4 / Version 2
File size                                : 13.0 GiB
Duration                                 : 51mn 56s
Overall bit rate                         : 35.9 Mbps
Encoded date                             : UTC 2015-11-21 14:54:09
Writing application                      : mkvmerge v8.5.2 ('Crosses') 64bit
Writing library                          : libebml v1.3.3 + libmatroska v1.4.4
DURATION                                 : 00:50:30.819000000
NUMBER_OF_FRAMES                         : 638
NUMBER_OF_BYTES                          : 19924
_STATISTICS_WRITING_APP                  : mkvmerge v8.5.2 ('Crosses') 64bit
_STATISTICS_WRITING_DATE_UTC             : 2015-11-21 14:54:09
_STATISTICS_TAGS                         : BPS DURATION NUMBER_OF_FRAMES NUMBER_OF_BYTES

Video
ID                                       : 1
Format                                   : AVC
Format/Info                              : Advanced Video Codec
Format profile                           : [email protected]
Format settings, CABAC                   : Yes
Format settings, ReFrames                : 5 frames
Codec ID                                 : V_MPEG4/ISO/AVC
Duration                                 : 51mn 55s
Bit rate                                 : 33.9 Mbps
Width                                    : 3 840 pixels
Height                                   : 2 160 pixels
Display aspect ratio                     : 16:9
Frame rate mode                          : Constant
Frame rate                               : 23.976 fps
Color space                              : YUV
Chroma subsampling                       : 4:2:0
Bit depth                                : 8 bits
Scan type                                : Progressive
Bits/(Pixel*Frame)                       : 0.170
Stream size                              : 12.3 GiB (94%)
Writing library                          : x264 core 148 r2638 7599210
Encoding settings                        : cabac=1 / ref=5 / deblock=1:-1:-1 / analyse=0x3:0x133 / me=umh / subme=10 / psy=1 / psy_rd=1.05:0.00 / mixed_ref=1 / me_range=24 / chroma_me=1 / trellis=2 / 8x8dct=1 / cqm=0 / deadzone=21,11 / fast_pskip=1 / chroma_qp_offset=-2 / threads=24 / lookahead_threads=4 / sliced_threads=0 / nr=0 / decimate=1 / interlaced=0 / bluray_compat=0 / constrained_intra=0 / bframes=8 / b_pyramid=2 / b_adapt=2 / b_bias=0 / direct=3 / weightb=1 / open_gop=0 / weightp=2 / keyint=250 / keyint_min=23 / scenecut=40 / intra_refresh=0 / rc_lookahead=60 / rc=crf / mbtree=1 / crf=18.0 / qcomp=0.60 / qpmin=0 / qpmax=69 / qpstep=4 / ip_ratio=1.40 / aq=2:0.90
Default                                  : Yes
Forced                                   : No
Color primaries                          : BT.709
Transfer characteristics                 : BT.709
Matrix coefficients                      : BT.709

Audio #1
ID                                       : 2
Format                                   : AC-3
Format/Info                              : Audio Coding 3
Mode extension                           : CM (complete main)
Format settings, Endianness              : Big
Codec ID                                 : A_AC3
Duration                                 : 51mn 56s
Bit rate mode                            : Constant
Bit rate                                 : 640 Kbps
Channel(s)                               : 6 channels
Channel positions                        : Front: L C R, Side: L R, LFE
Sampling rate                            : 48.0 KHz
Bit depth                                : 16 bits
Compression mode                         : Lossy
Stream size                              : 238 MiB (2%)
Language                                 : German
Default                                  : Yes
Forced                                   : No

Audio #2
ID                                       : 3
Format                                   : AC-3
Format/Info                              : Audio Coding 3
Mode extension                           : CM (complete main)
Format settings, Endianness              : Big
Codec ID                                 : A_AC3
Duration                                 : 51mn 56s
Bit rate mode                            : Constant
Bit rate                                 : 640 Kbps
Channel(s)                               : 6 channels
Channel positions                        : Front: L C R, Side: L R, LFE
Sampling rate                            : 48.0 KHz
Bit depth                                : 16 bits
Compression mode                         : Lossy
Stream size                              : 238 MiB (2%)
Language                                 : English
Default                                  : No
Forced                                   : No

Text #1
ID                                       : 4
Format                                   : UTF-8
Codec ID                                 : S_TEXT/UTF8
Codec ID/Info                            : UTF-8 Plain Text
Title                                    : Forced
Language                                 : German
Default                                  : Yes
Forced                                   : Yes

Text #2
ID                                       : 5
Format                                   : UTF-8
Codec ID                                 : S_TEXT/UTF8
Codec ID/Info                            : UTF-8 Plain Text
Language                                 : German
Default                                  : No
Forced                                   : No

Text #3
ID                                       : 6
Format                                   : UTF-8
Codec ID                                 : S_TEXT/UTF8
Codec ID/Info                            : UTF-8 Plain Text
Language                                 : English
Default                                  : No
Forced                                   : No

Passwort: NIMA4K
Hoster: Share-Online, Rapidgator

Kommentare (0)

Bitte nutze die Kommentierfunktion ausschließlich für Releasespezifische Kommentare! Alles weitere kann gern in der Shoutbox oder im Forum diskutiert werden.

Kommentar schreiben

Du bist nicht eingeloggt! Bitte registriere Dich hier, um einen Kommentar zu schreiben. Falls Du bereits einen Account hast, kannst du dich hier einloggen.
Noch keine Kommentare vorhanden. Schreibe den ersten Kommentar!