Your first Source for 4K-Releases

We.Are.Blood.2015.2160p.WEB-DL.AAC2.0.x264-ULTRAHDCLUB

We Are Blood (2015) We.Are.Blood.2015.2160p.WEB-DL.AAC2.0.x264-ULTRAHDCLUB

Eingetragen am 29.06.2016 um 23:31 Uhr

  • Größe 14,00 GB
  • Codec AVC x264
  • Source Web-DL
  • Sprache English AAC 2.0
  • Auflösung 3840x2160
  • Laufzeit 1 Stunde 30 Minuten
  • Bitrate 22,20 Mb/s

Mountain Dew Green Label Films in association with Brain Farm presents… We Are Blood is a modern day skate epic featuring Paul Rodriguez and other top skateboarders as they travel the globe pushing the limits of what’s possible on a board and four wheels while celebrating the unconditional bond created by the simple act of skateboarding. Shot on location; Brazil – China – Dubai – Spain – USA

Mountain Dew Green Label Films in Zusammenarbeit mit Brain Farm präsentiert ... We Are Blood eine moderne Skate- Epos ist mit Paul Rodriguez und andere Top-Skatern , wie sie die Welt an die Grenzen der Reise , was möglich ist auf einem Brett und vier Rädern , während die bedingungslose Bindung feiern durch den einfachen Akt des Skateboard geschaffen . Locations: Brasilien - China - Dubai - Spanien - USA

Trailer

Release Media Infos

General
Complete name                            : We.Are.Blood.2015.2160p.WEB-DL.AAC2.0.x264.mp4
Format                                   : MPEG-4
Format profile                           : Base Media / Version 2
Codec ID                                 : mp42 (mp42/mp41/isom/avc1)
File size                                : 14.0 GiB
Duration                                 : 1h 30mn
Overall bit rate mode                    : Variable
Overall bit rate                         : 22.2 Mbps
Encoded date                             : UTC 2016-01-26 01:55:00
Tagged date                              : UTC 2016-01-26 01:55:00

Video
ID                                       : 1
Format                                   : AVC
Format/Info                              : Advanced Video Codec
Format profile                           : [email protected]
Format settings, CABAC                   : Yes
Format settings, ReFrames                : 5 frames
Codec ID                                 : avc1
Codec ID/Info                            : Advanced Video Coding
Duration                                 : 1h 30mn
Bit rate                                 : 22.0 Mbps
Width                                    : 3 840 pixels
Height                                   : 2 160 pixels
Display aspect ratio                     : 16:9
Frame rate mode                          : Constant
Frame rate                               : 23.976 (24000/1001) fps
Color space                              : YUV
Chroma subsampling                       : 4:2:0
Bit depth                                : 8 bits
Scan type                                : Progressive
Bits/(Pixel*Frame)                       : 0.111
Stream size                              : 13.8 GiB (99%)
Writing library                          : x264 core 148 r11 a01e339
Encoding settings                        : cabac=1 / ref=5 / deblock=1:0:0 / analyse=0x3:0x113 / me=umh / subme=8 / psy=1 / psy_rd=1.00:0.00 / mixed_ref=1 / me_range=16 / chroma_me=1 / trellis=1 / 8x8dct=1 / cqm=0 / deadzone=21,11 / fast_pskip=1 / chroma_qp_offset=-2 / threads=48 / lookahead_threads=8 / sliced_threads=0 / nr=0 / decimate=1 / interlaced=0 / bluray_compat=0 / stitchable=1 / constrained_intra=0 / bframes=3 / b_pyramid=2 / b_adapt=2 / b_bias=0 / direct=3 / weightb=1 / open_gop=0 / weightp=2 / keyint=infinite / keyint_min=23 / scenecut=40 / intra_refresh=0 / rc_lookahead=50 / rc=2pass / mbtree=1 / bitrate=22000 / ratetol=1.0 / qcomp=0.60 / qpmin=5 / qpmax=69 / qpstep=4 / cplxblur=20.0 / qblur=0.5 / vbv_maxrate=24200 / vbv_bufsize=66000 / nal_hrd=none / filler=0 / ip_ratio=1.40 / aq=1:1.00
Encoded date                             : UTC 2016-01-26 01:55:00
Tagged date                              : UTC 2016-01-26 01:55:00
Color range                              : Limited
Color primaries                          : BT.709
Transfer characteristics                 : BT.709
Matrix coefficients                      : BT.709

Audio
ID                                       : 2
Format                                   : AAC
Format/Info                              : Advanced Audio Codec
Format profile                           : LC
Codec ID                                 : 40
Duration                                 : 1h 30mn
Bit rate mode                            : Variable
Bit rate                                 : 256 Kbps
Channel(s)                               : 2 channels
Channel positions                        : Front: L R
Sampling rate                            : 48.0 KHz
Frame rate                               : 46.875 fps (1024 spf)
Compression mode                         : Lossy
Stream size                              : 165 MiB (1%)
Encoded date                             : UTC 2016-01-26 01:55:00
Tagged date                              : UTC 2016-01-26 01:55:00


Passwort: NIMA4K
Hoster: Share-online, Uploaded

Kommentare (0)

Bitte nutze die Kommentierfunktion ausschließlich für Releasespezifische Kommentare! Alles weitere kann gern in der Shoutbox oder im Forum diskutiert werden.

Kommentar schreiben

Offlinedateien werden vom System automatisch erkannt und der Reupload angestoßen. Schau am besten in ein paar Stunden wieder rein :)
CAPTCHA Image
Noch keine Kommentare vorhanden. Schreibe den ersten Kommentar!