Your first Source for 4K-Releases

John.Wick.2014.4K.COMPLETE.2160p.UltraHD.Blu-ray.HDR.HEVC.Atmos-HDRINVASION

John Wick (2014) (Complete - English) John.Wick.2014.4K.COMPLETE.2160p.UltraHD.Blu-ray.HDR.HEVC.Atmos-HDRINVASION

Eingetragen am 04.11.2017 um 00:08 Uhr

  • Größe 62,07 GB
  • Codec HEVC
  • Source Ultra HD Blu-Ray
  • Sprache English TrueHD Atmos 7.1, Spanisch / French Dolby Digital 5.1
  • Auflösung 3840x2160
  • Laufzeit 1 Stunde 41 Minuten
  • Bitrate 58,00 Mb/s

John Wick genießt seinen frühen Ruhestand in der Vorstadt. Doch als seine Frau einer tödlichen Krankheit erliegt, verfällt er in Trauer. Nur sein Hund bleibt ihm noch als Gefährte. Als eines Tages jedoch drei russische Gangster in sein Haus einsteigen und seinen treuen Begleiter töten, holt ihn seine finstere Vergangenheit ein, war er doch früher der Top-Auftragskiller an der Ostküste. So tauscht er schließlich die Vorstadtidylle gegen jede Menge Feuerkraft und macht sich, auf Rache sinnend, auf die Suche nach den Einbrechern. Einer von ihnen ist Iosef Tarasov, der Sohn des einflussreichen Verbrecherbosses Viggo Tarasov, für den Wick selbst einmal gearbeitet hatte. Doch für Freundschaft ist kein Platz in dem Rachefeldzug und so hat er bald auch den ehemaligen Kollegen Marcus an seinen Fersen hängen...

Trailer

Release Media Infos

                                       ``.--::///////::-..`                                          
                             `.:+sydmmmdhhyysssssssssyhhdmmmdhso/-`                                 
                        .:ohmNdyo+:.`                       .-/+shmmdy/:`                           
                    .+ymmy+:`                                       .:+hmyy/.                       
                 -smmy/.                                              . `./ymms:                    
              .ommo-                                                         .+dNy:                 
            -hNy-           .`                                                  .omm/`              
          .hNs.             .sdo.                                                  :yNo`            
         +Nh.                 +MMms+:.                          `:oydmmd-          . :dm/           
        yMo                    -smNMMMNds:`                .:+sdMMMmo-                 oNs`         
       sM/                         .-/+o++o+-            /mNmddddy:                     :oh`        
      :Ms                                               `-`                              -Nh        
      hN.                                                                                `oM/       
     `Nm                                 `-/++////:.` `                                   `Nd       
     `Nm                            ./ohmMMMMMMMMMMMMNNNdy+::::-                           mm`      
      yM-                    `:+oshNMMMMMMMMMMMMMMMMMMMMMMMMMMMMNh+.                      `Nm       
      -My                 `/dMMMMMNdys+:..```.:/+oo:-...:/oshMMMMMMMmy/`                  :Ms       
       oMo               +NMMNy/-`                           +o-.hMhyyNm.                `mN.       
        oMs             .MMNo`                                    `   `hm.              `dN:        
         /Nd-           ym+`                                            +:             -mN-         
          `yNy.        `/                                                            `sNh.          
            -yNy-                                                                  `oNd:            
              .sNmo.                                                             :yNh:              
                 :yNdo-                                                      `:smmo.                
                    :odNh+-`                                             `:ohNh+.                   
                       `:ohmmyo/-`                                 `./oymmho:`                      
                            `:+sdmmdys+/:-.```         ```.-:/+sydmmds+:`                           
                                  `.:/osyhhdmmmmmmmmmmmmmdhhys+/:.`                                

                                     HDRINVASION ;(




 
Note: We are looking for more UHD discs, any help is welcome.
Thanks to everyone who has supported us, and helped us in our real HDR invasion!
HDRINVASION team




Complete name                            : John Wick 2014 4K COMPLETE 2160p UltraHD Blu-ray HDR HEVC Atmos-HDRINVASION/BDMV/STREAM/00000.m2ts
Format                                   : BDAV
Format/Info                              : Blu-ray Video
File size                                : 49.3 GiB
Duration                                 : 1 h 41 min
Overall bit rate mode                    : Variable
Overall bit rate                         : 69.7 Mb/s
Maximum Overall bit rate                 : 109 Mb/s

Video
ID                                       : 4113 (0x1011)
Menu ID                                  : 1 (0x1)
Format                                   : HEVC
Format/Info                              : High Efficiency Video Coding
Format profile                           : Main [email protected]@High
Codec ID                                 : 36
Duration                                 : 1 h 41 min
Bit rate                                 : 64.4 Mb/s
Width                                    : 3 840 pixels
Height                                   : 2 160 pixels
Display aspect ratio                     : 16:9
Frame rate                               : 23.976 (24000/1001) FPS
Color space                              : YUV
Chroma subsampling                       : 4:2:0 (Type 2)
Bit depth                                : 10 bits
Bits/(Pixel*Frame)                       : 0.324
Stream size                              : 45.5 GiB (92%)
Writing library                          : ATEME Titan File 3.7.9 (4.7.9.0)
Color range                              : Limited
Color primaries                          : BT.2020
Transfer characteristics                 : SMPTE ST 2084
Matrix coefficients                      : BT.2020 non-constant
Mastering display color primaries        : R: x=0.680000 y=0.320000, G: x=0.265000 y=0.690000, B: x=0.150000 y=0.060000, White point: x=0.312700 y=0.329000
Mastering display luminance              : min: 0.0000 cd/m2, max: 1000.0000 cd/m2
Maximum Content Light Level              : 1000 cd/m2
Maximum Frame-Average Light Level        : 169 cd/m2

Audio #1
ID                                       : 4352 (0x1100)
Menu ID                                  : 1 (0x1)
Format                                   : Atmos / TrueHD / AC-3
Mode extension                           : CM (complete main)
Format settings, Endianness              : Big
Muxing mode                              : Stream extension
Codec ID                                 : 131
Duration                                 : 1 h 41 min
Bit rate mode                            : Variable / Constant
Bit rate                                 : 640 kb/s
Maximum bit rate                         : 9 456 kb/s
Channel(s)                               : Object Based / 8 channels / 6 channels
Channel positions                        : Object Based / Front: L C R, Side: L R, Back: L R, LFE / Front: L C R, Side: L R, LFE
Sampling rate                            :  / 48.0 kHz / 48.0 kHz
Frame rate                               : 31.250 FPS (1536 spf)
Bit depth                                : 16 bits
Delay relative to video                  : -1 ms
Stream size                              : 463 MiB (1%)

Audio #2
ID                                       : 4353 (0x1101)
Menu ID                                  : 1 (0x1)
Format                                   : AC-3
Format/Info                              : Audio Coding 3
Mode extension                           : CM (complete main)
Format settings, Endianness              : Big
Codec ID                                 : 129
Duration                                 : 1 h 41 min
Bit rate mode                            : Constant
Bit rate                                 : 640 kb/s
Channel(s)                               : 6 channels
Channel positions                        : Front: L C R, Side: L R, LFE
Sampling rate                            : 48.0 kHz
Frame rate                               : 31.250 FPS (1536 spf)
Bit depth                                : 16 bits
Compression mode                         : Lossy
Stream size                              : 463 MiB (1%)

Audio #3
ID                                       : 4354 (0x1102)
Menu ID                                  : 1 (0x1)
Format                                   : AC-3
Format/Info                              : Audio Coding 3
Mode extension                           : CM (complete main)
Format settings, Endianness              : Big
Codec ID                                 : 129
Duration                                 : 1 h 41 min
Bit rate mode                            : Constant
Bit rate                                 : 640 kb/s
Channel(s)                               : 6 channels
Channel positions                        : Front: L C R, Side: L R, LFE
Sampling rate                            : 48.0 kHz
Frame rate                               : 31.250 FPS (1536 spf)
Bit depth                                : 16 bits
Compression mode                         : Lossy
Stream size                              : 463 MiB (1%)

Audio #4
ID                                       : 4355 (0x1103)
Menu ID                                  : 1 (0x1)
Format                                   : AC-3
Format/Info                              : Audio Coding 3
Format profile                           : Dolby Digital
Mode extension                           : CM (complete main)
Format settings, Endianness              : Big
Codec ID                                 : 129
Duration                                 : 1 h 41 min
Bit rate mode                            : Constant
Bit rate                                 : 224 kb/s
Channel(s)                               : 2 channels
Channel positions                        : Front: L R
Sampling rate                            : 48.0 kHz
Frame rate                               : 31.250 FPS (1536 spf)
Bit depth                                : 16 bits
Compression mode                         : Lossy
Stream size                              : 162 MiB (0%)

Audio #5
ID                                       : 4356 (0x1104)
Menu ID                                  : 1 (0x1)
Format                                   : AC-3
Format/Info                              : Audio Coding 3
Format profile                           : Dolby Digital
Mode extension                           : CM (complete main)
Format settings, Endianness              : Big
Codec ID                                 : 129
Duration                                 : 1 h 41 min
Bit rate mode                            : Constant
Bit rate                                 : 224 kb/s
Channel(s)                               : 2 channels
Channel positions                        : Front: L R
Sampling rate                            : 48.0 kHz
Frame rate                               : 31.250 FPS (1536 spf)
Bit depth                                : 16 bits
Compression mode                         : Lossy
Stream size                              : 162 MiB (0%)

Audio #6
ID                                       : 4357 (0x1105)
Menu ID                                  : 1 (0x1)
Format                                   : AC-3
Format/Info                              : Audio Coding 3
Format profile                           : Dolby Digital
Mode extension                           : CM (complete main)
Format settings, Endianness              : Big
Codec ID                                 : 129
Duration                                 : 1 h 41 min
Bit rate mode                            : Constant
Bit rate                                 : 224 kb/s
Channel(s)                               : 2 channels
Channel positions                        : Front: L R
Sampling rate                            : 48.0 kHz
Frame rate                               : 31.250 FPS (1536 spf)
Bit depth                                : 16 bits
Compression mode                         : Lossy
Stream size                              : 162 MiB (0%)

Text #1
ID                                       : 4768 (0x12A0)
Menu ID                                  : 1 (0x1)
Format                                   : PGS
Codec ID                                 : 144

Text #2
ID                                       : 4769 (0x12A1)
Menu ID                                  : 1 (0x1)
Format                                   : PGS
Codec ID                                 : 144

Text #3
ID                                       : 4770 (0x12A2)
Menu ID                                  : 1 (0x1)
Format                                   : PGS
Codec ID                                 : 144

Text #4
ID                                       : 4771 (0x12A3)
Menu ID                                  : 1 (0x1)
Format                                   : PGS
Codec ID                                 : 144






If you enjoy this release, please seed as much as you can!
And like: https://www.facebook.com/hardcorerap4life/

Passwort: NIMA4K
Hoster: Share-Online, Rapidgator

Kommentare (0)

Bitte nutze die Kommentierfunktion ausschließlich für Releasespezifische Kommentare! Alles weitere kann gern in der Shoutbox oder im Forum diskutiert werden.

Kommentar schreiben

Du bist nicht eingeloggt! Bitte registriere Dich hier, um einen Kommentar zu schreiben. Falls Du bereits einen Account hast, kannst du dich hier einloggen.
Noch keine Kommentare vorhanden. Schreibe den ersten Kommentar!