Your first Source for 4K-Releases

MTB.Insights.S01.2160p.WEB-DL.AAC2.0.x264-ULTRAHDCLUB

MTB Insights (Season 1) (Complete) MTB.Insights.S01.2160p.WEB-DL.AAC2.0.x264-ULTRAHDCLUB

Eingetragen am 13.06.2016 um 21:47 Uhr

  • Größe Pro Folge ca. 3,96 GB
  • Codec AVC x264
  • Source Web-DL
  • Sprache English AAC 2.0
  • Auflösung 3840x2160
  • Laufzeit pro Folge ca. 30 Minuten
  • Bitrate 22,20 Mb/s

Episodes individually loadable

MTB Insights offers a unique Ultra HD view into mountain biking today. Each episode takes an in-depth look at the culture and evolution of one of the fastest growing extreme sports in the world. Follow top riders Sam Pilgrim, Matt MacDuff, Antoine Bizet and many more, to their favourite spots across Europe and North America. Looking at each aspect of mountain biking, this series is for enthusiasts and experts alike.

Included Episodes:

Episode 1: Woodward and Post Office
Episode 2: French Focus
Episode 3: Produced in Poland
Episode 4: Brendan Fairclough
Episode 5: Matt McDuff
Episode 6: Cruz in Cali
Episode 7: Pilgrim and Jones
Episode 8: Pierre-Edouard Ferry and Nicolas Vouilloz
Episode 9: There is Hope
Episode 10: Barcelona

Release Media Infos

General
Complete name                            : MTB.Insights.S01E01.2160p.WEB-DL.AAC2.0.x264-ULTRAHDCLUB.mp4
Format                                   : MPEG-4
Format profile                           : Base Media / Version 2
Codec ID                                 : mp42 (mp42/mp41/isom/avc1)
File size                                : 4.11 GiB
Duration                                 : 26mn 30s
Overall bit rate mode                    : Variable
Overaall bit rate                         : 22.2 Mbps
Encoded date                             : UTC 2016-01-06 17:39:28
Tagged date                              : UTC 2016-01-06 17:39:28

Video
ID                                       : 1
Format                                   : AVC
Format/Info                              : Advanced Video Codec
Format profile                           : [email protected]
Format settings, CABAC                   : Yes
Format settings, ReFrames                : 5 frames
Codec ID                                 : avc1
Codec ID/Info                            : Advanced Video Coding
Duration                                 : 26mn 30s
Bit rate                                 : 22.0 Mbps
Width                                    : 3 840 pixels
Height                                   : 2 160 pixels
Display aspect ratio                     : 16:9
Frame rate mode                          : Constant
Frame rate                               : 23.976 (24000/1001) fps
Color space                              : YUV
Chroma subsampling                       : 4:2:0
Bit depth                                : 8 bits
Scan type                                : Progressive
Bits/(Pixel*Frame)                       : 0.111
Stream size                              : 4.06 GiB (99%)
Writing library                          : x264 core 148 r11 7599210
Encoding settings                        : cabac=1 / ref=5 / deblock=1:0:0 / analyse=0x3:0x113 / me=umh / subme=8 / psy=1 / psy_rd=1.00:0.00 / mixed_ref=1 / me_range=16 / chroma_me=1 / trellis=1 / 8x8dct=1 / cqm=0 / deadzone=21,11 / fast_pskip=1 / chroma_qp_offset=-2 / threads=48 / lookahead_threads=8 / sliced_threads=0 / nr=0 / decimate=1 / interlaced=0 / bluray_compat=0 / stitchable=1 / constrained_intra=0 / bframes=3 / b_pyramid=2 / b_adapt=2 / b_bias=0 / direct=3 / weightb=1 / open_gop=0 / weightp=2 / keyint=infinite / keyint_min=23 / scenecut=40 / intra_refresh=0 / rc_lookahead=50 / rc=2pass / mbtree=1 / bitrate=22000 / ratetol=1.0 / qcomp=0.60 / qpmin=5 / qpmax=69 / qpstep=4 / cplxblur=20.0 / qblur=0.5 / vbv_maxrate=24200 / vbv_bufsize=66000 / nal_hrd=none / filler=0 / ip_ratio=1.40 / aq=1:1.00
Encoded date                             : UTC 2016-01-06 17:39:28
Tagged date                              : UTC 2016-01-06 17:39:28
Color range                              : Limited
Color primaries                          : BT.709
Transfer characteristics                 : BT.709
Matrix coefficients                      : BT.709

Audio
ID                                       : 2
Format                                   : AAC
Format/Info                              : Advanced Audio Codec
Format profile                           : LC
Codec ID                                 : 40
Duration                                 : 26mn 30s
Bit rate mode                            : Variable
Bit rate                                 : 256 Kbps
Channel(s)                               : 2 channels
Channel positions                        : Front: L R
Sampling rate                            : 48.0 KHz
Frame rate                               : 46.875 fps (1024 spf)
Compression mode                         : Lossy
Stream size                              : 48.5 MiB (1%)
Encoded date                             : UTC 2016-01-06 17:39:28
Tagged date                              : UTC 2016-01-06 17:39:28

Passwort: NIMA4K
Hoster: Share-Online, Rapidgator

Kommentare (0)

Bitte nutze die Kommentierfunktion ausschließlich für Releasespezifische Kommentare! Alles weitere kann gern in der Shoutbox oder im Forum diskutiert werden.

Kommentar schreiben

Du bist nicht eingeloggt! Bitte registriere Dich hier, um einen Kommentar zu schreiben. Falls Du bereits einen Account hast, kannst du dich hier einloggen.
Noch keine Kommentare vorhanden. Schreibe den ersten Kommentar!