Your first Source for 4K-Releases

Ashes.to.Agassiz.2015.2160p.WEB-DL.AAC2.0.x264-ULTRAHDCLUB

Ashes to Agassiz (2015) Ashes.to.Agassiz.2015.2160p.WEB-DL.AAC2.0.x264-ULTRAHDCLUB

Eingetragen am 09.06.2016 um 14:58 Uhr

  • Größe 3,06 GB
  • Codec AVC x264
  • Source Web-DL
  • Sprache English AAC 2.0
  • Auflösung 3840x2160
  • Laufzeit 21 Minuten
  • Bitrate 20,60 Mb/s

It’s been a journey, you could say. A real barnburner. A man at the top of his professional prowess, his mountain bike a natural extension of him, one of the best riders the sport has ever seen. But like all great heroes, adversity comes a knocking. For Graham Agassiz, a relatively benign descent—one he’s done a hundred times before—reached out with its wicked limb and smacked him down. Shoved a fat slice of humble pie in his kisser. With his neck broken and a career in jeopardy, the road back to the top is now lined with dangers and demons.

Release Media Infos

General
Complete name                            : Ashes.to.Agassiz.2015.2160p.WEB-DL.AAC2.0.x264-ULTRAHDCLUB.mp4
Format                                   : MPEG-4
Format profile                           : Base Media / Version 2
Codec ID                                 : mp42 (mp42/mp41/isom/avc1)
File size                                : 3.07 GiB
Duration                                 : 21mn 19s
Overall bit rate mode                    : Variable
Overall bit rate                         : 20.6 Mbps
Encoded date                             : UTC 2015-12-21 18:15:55
Tagged date                              : UTC 2015-12-21 18:15:55

Video
ID                                       : 1
Format                                   : AVC
Format/Info                              : Advanced Video Codec
Format profile                           : [email protected]
Format settings, CABAC                   : Yes
Format settings, ReFrames                : 5 frames
Codec ID                                 : avc1
Codec ID/Info                            : Advanced Video Coding
Duration                                 : 21mn 19s
Bit rate                                 : 20.3 Mbps
Width                                    : 3 840 pixels
Height                                   : 2 160 pixels
Display aspect ratio                     : 16:9
Frame rate mode                          : Constant
Frame rate                               : 23.976 (24000/1001) fps
Color space                              : YUV
Chroma subsampling                       : 4:2:0
Bit depth                                : 8 bits
Scan type                                : Progressive
Bits/(Pixel*Frame)                       : 0.102
Stream size                              : 3.03 GiB (99%)
Writing library                          : x264 core 148 r11 7599210
Encoding settings                        : cabac=1 / ref=5 / deblock=1:0:0 / analyse=0x3:0x113 / me=umh / subme=8 / psy=1 / psy_rd=1.00:0.00 / mixed_ref=1 / me_range=16 / chroma_me=1 / trellis=1 / 8x8dct=1 / cqm=0 / deadzone=21,11 / fast_pskip=1 / chroma_qp_offset=-2 / threads=48 / lookahead_threads=8 / sliced_threads=0 / nr=0 / decimate=1 / interlaced=0 / bluray_compat=0 / stitchable=1 / constrained_intra=0 / bframes=3 / b_pyramid=2 / b_adapt=2 / b_bias=0 / direct=3 / weightb=1 / open_gop=0 / weightp=2 / keyint=infinite / keyint_min=23 / scenecut=40 / intra_refresh=0 / rc_lookahead=50 / rc=crf / mbtree=1 / crf=20.0 / qcomp=0.60 / qpmin=5 / qpmax=69 / qpstep=4 / vbv_maxrate=24200 / vbv_bufsize=66000 / crf_max=0.0 / nal_hrd=none / filler=0 / ip_ratio=1.40 / aq=1:1.00
Encoded date                             : UTC 2015-12-21 18:15:55
Tagged date                              : UTC 2015-12-21 18:15:55
Color range                              : Limited
Color primaries                          : BT.709
Transfer characteristics                 : BT.709
Matrix coefficients                      : BT.709

Audio
ID                                       : 2
Format                                   : AAC
Format/Info                              : Advanced Audio Codec
Format profile                           : LC
Codec ID                                 : 40
Duration                                 : 21mn 19s
Bit rate mode                            : Variable
Bit rate                                 : 256 Kbps
Channel(s)                               : 2 channels
Channel positions                        : Front: L R
Sampling rate                            : 48.0 KHz
Frame rate                               : 46.875 fps (1024 spf)
Compression mode                         : Lossy
Stream size                              : 39.1 MiB (1%)
Encoded date                             : UTC 2015-12-21 18:15:55
Tagged date                              : UTC 2015-12-21 18:15:55

Passwort: NIMA4K
Hoster: Share-online, Uploaded, Wi.to

Kommentare (3)

Bitte nutze die Kommentierfunktion ausschließlich für Releasespezifische Kommentare! Alles weitere kann gern in der Shoutbox oder im Forum diskutiert werden.

Kommentar schreiben

Du bist nicht eingeloggt! Bitte registriere Dich hier, um einen Kommentar zu schreiben. Falls Du bereits einen Account hast, kannst du dich hier einloggen.

NIMA4K 09.06.2016 - 18:32 Uhr

Danke hab ich geändert

klaus 09.06.2016 - 16:33 Uhr

die sprache ist aber nicht französisch sondern englisch ;)

klaus 09.06.2016 - 15:53 Uhr

sehr sehr geil!! vielen dank