Your first Source for 4K-Releases

Citadel.2015.2160p.WEB-DL.AAC2.0.x264-ULTRAHDCLUB

Citadel (2015) Citadel.2015.2160p.WEB-DL.AAC2.0.x264-ULTRAHDCLUB

Eingetragen am 04.06.2016 um 20:03 Uhr

  • Größe 6,11 GB
  • Codec AVC x264
  • Source Web-DL
  • Sprache English AAC 2.0
  • Auflösung 3840x2160
  • Laufzeit 48 Minuten
  • Bitrate 17,70 Mb/s

Dubbed ‘The Mountain God’, the Citadel is a stunning 3000m peak in one of the remaining untouched corners of the Great Alaskan Range: The Neacola Mountains. Due to their typically poor conditions and remote location are largely unexplored. Matt Helliker and Jon Bracey are one the UK's most formidable partnerships in alpine climbing with many world class ascents to their names from the UK to the Alps and the greater ranges. Their objective is to make the first ascent of the extraordinary 1200m long north-west ridge.

Adventure film maker Alastair Lee embarked upon this project with the objective to push the boundaries and capture hard alpine climbing like never before. Employing the latest cineflex technology combined with an innovative vision the final results are truly incredible; the next dimension in mountain film. ‘Citadel’ is a stunning visual. To match its visual prowess ‘Citadel’ is laced with a strong sense of narrative. Like all good stories it is character driven and centres around one of the most unlikely yet successful partnerships in world alpinism. That of Matt Helliker and Jon Bracey.

The stage is set for why two accomplished mountaineers must still seek out new lines in unchartered territory where the odds are stacked heavily against them. We take a front seat ride and are with Matt and Jon every step of the way through all the hardships and struggles, hopes and disappointments. What unfolds is a classic narrative arc where success is snatched from the jaws of defeat.

WINNER UIAA BEST CLIMBING FILM, TRENTO FILM FESTIVAL 2016
GRAND PRIZE AND BEST CLIMBING FILM 2016 FLIX MOUNTAIN & ADVENTURE FILM FESTIVAL
WINNER BEST DOCUMENTARY AWARD, SPORTS FILM FESTIVAL MOSCOW 2016
WINNER CINEMATOGRAPHY AWARD, CHAMONIX ADVENTURE FILM FESTIVAL 2016
WINNER GRAND PRIZE, VERONA MOUNTAIN FILM FESTIVAL 2016
WINNER BEST CLIMBING FILM, VANCOUVER MOUNTAIN FILM FESTIVAL 2016
WINNER BEST CINEMATOGRAPHY, DANISH ADVENTURE FILM FESTIVAL 2015
WINNER BEST DOCUMENTARY, TORELLO MOUNTAIN FILM FESTIVAL 2015

“Riveting, pure, & unbelievable” - Alpinist Mag

Trailer

Release Media Infos

General
Complete name                            : Citadel.2015.2160p.WEB-DL.AAC2.0.x264-ULTRAHDCLUB.mp4
Format                                   : MPEG-4
Format profile                           : Base Media / Version 2
Codec ID                                 : mp42 (mp42/mp41/isom/avc1)
File size                                : 6.11 GiB
Duration                                 : 48mn 13s
Overall bit rate mode                    : Variable
Overall bit rate                         : 18.1 Mbps
Encoded date                             : UTC 2015-11-29 19:31:14
Tagged date                              : UTC 2015-11-29 19:31:14

Video
ID                                       : 1
Format                                   : AVC
Format/Info                              : Advanced Video Codec
Format profile                           : High@L5.1
Format settings, CABAC                   : Yes
Format settings, ReFrames                : 5 frames
Codec ID                                 : avc1
Codec ID/Info                            : Advanced Video Coding
Duration                                 : 48mn 13s
Bit rate                                 : 17.7 Mbps
Width                                    : 3 840 pixels
Height                                   : 2 160 pixels
Display aspect ratio                     : 16:9
Frame rate mode                          : Constant
Frame rate                               : 25.000 fps
Color space                              : YUV
Chroma subsampling                       : 4:2:0
Bit depth                                : 8 bits
Scan type                                : Progressive
Bits/(Pixel*Frame)                       : 0.086
Stream size                              : 5.98 GiB (98%)
Writing library                          : x264 core 148 r11 73ae2d1
Encoding settings                        : cabac=1 / ref=5 / deblock=1:0:0 / analyse=0x3:0x113 / me=umh / subme=8 / psy=1 / psy_rd=1.00:0.00 / mixed_ref=1 / me_range=16 / chroma_me=1 / trellis=1 / 8x8dct=1 / cqm=0 / deadzone=21,11 / fast_pskip=1 / chroma_qp_offset=-2 / threads=67 / lookahead_threads=11 / sliced_threads=0 / nr=0 / decimate=1 / interlaced=0 / bluray_compat=0 / stitchable=1 / constrained_intra=0 / bframes=3 / b_pyramid=2 / b_adapt=2 / b_bias=0 / direct=3 / weightb=1 / open_gop=0 / weightp=2 / keyint=infinite / keyint_min=25 / scenecut=40 / intra_refresh=0 / rc_lookahead=50 / rc=crf / mbtree=1 / crf=20.0 / qcomp=0.60 / qpmin=5 / qpmax=69 / qpstep=4 / vbv_maxrate=24200 / vbv_bufsize=66000 / crf_max=0.0 / nal_hrd=none / filler=0 / ip_ratio=1.40 / aq=1:1.00
Encoded date                             : UTC 2015-11-29 19:31:14
Tagged date                              : UTC 2015-11-29 19:31:14
Color range                              : Limited
Color primaries                          : BT.709
Transfer characteristics                 : BT.709
Matrix coefficients                      : BT.709

Audio
ID                                       : 2
Format                                   : AAC
Format/Info                              : Advanced Audio Codec
Format profile                           : LC
Codec ID                                 : 40
Duration                                 : 48mn 13s
Bit rate mode                            : Variable
Bit rate                                 : 384 Kbps
Channel(s)                               : 2 channels
Channel positions                        : Front: L R
Sampling rate                            : 48.0 KHz
Frame rate                               : 46.875 fps (1024 spf)
Compression mode                         : Lossy
Stream size                              : 132 MiB (2%)
Encoded date                             : UTC 2015-11-29 19:31:14
Tagged date                              : UTC 2015-11-29 19:31:14

Passwort: NIMA4K
Hoster: Share-Online, Rapidgator

Kommentare (0)

Bitte nutze die Kommentierfunktion ausschließlich für Releasespezifische Kommentare! Alles weitere kann gern in der Shoutbox oder im Forum diskutiert werden.

Kommentar schreiben

Du bist nicht eingeloggt! Bitte registriere Dich hier, um einen Kommentar zu schreiben. Falls Du bereits einen Account hast, kannst du dich hier einloggen.
Noch keine Kommentare vorhanden. Schreibe den ersten Kommentar!