Your first Source for 4K-Releases

Sony.4K.Demo.Pack.2015.AAC20.2160p.WebDL.x264-iND

Sony 4K Demo Pack (2015) Sony.4K.Demo.Pack.2015.AAC20.2160p.WebDL.x264-iND

Eingetragen am 31.05.2016 um 01:12 Uhr

  • Größe 16,80 GB
  • Codec AVC x264
  • Source Web-DL
  • Sprache English AAC 2.0
  • Auflösung 3840x2160
  • Laufzeit insg. ca. 27 Min.
  • Bitrate 90,00 Mb/s

Sony 4K Demo Pack, bestehend aus 12 atemberaubenden UltraHD Videos.

Enthaltene Videos:

After Earth Trailer (2:30)
Another World (3:11)
Baby (0:36)
Beautiful Sea (1:44)
Bellagio (3:43)
Feel The Beauty 2013 (2:02)
FIFA Club World Cup Japan 2013 (3:43)
Greenkeeper (1:32)
The World Heritage Kyoto (2:23)
Total Recall Scene (1:07)
Triluminos Demo (2:27)
What's 4K (1:43)

Trailer

Release Media Infos

General
Complete name                            : After.Earth.Trailer.mkv
Format                                   : ccff
Codec ID                                 : ccff (iso6)
File size                                : 1.63 GiB
Duration                                 : 2mn 30s
Overall bit rate mode                    : Variable
Overall bit rate                         : 93.3 Mbps

Video
ID                                       : 1
Format                                   : AVC
Format/Info                              : Advanced Video Codec
Format profile                           : [email protected]
Format settings, CABAC                   : Yes
Format settings, ReFrames                : 2 frames
Codec ID                                 : avc1
Codec ID/Info                            : Advanced Video Coding
Duration                                 : 2mn 30s
Bit rate mode                            : Variable
Bit rate                                 : 93.2 Mbps
Width                                    : 3 840 pixels
Height                                   : 2 160 pixels
Display aspect ratio                     : 16:9
Frame rate mode                          : Constant
Frame rate                               : 23.976 (24000/1001) fps
Color space                              : YUV
Chroma subsampling                       : 4:2:0
Bit depth                                : 8 bits
Scan type                                : Progressive
Bits/(Pixel*Frame)                       : 0.469
Stream size                              : 1.63 GiB (100%)
Language                                 : English
Color range                              : Limited
Color primaries                          : BT.709
Transfer characteristics                 : BT.709
Matrix coefficients                      : BT.709

Audio
ID                                       : 2
Format                                   : AAC
Format/Info                              : Advanced Audio Codec
Format profile                           : LC
Codec ID                                 : 40
Duration                                 : 2mn 30s
Bit rate mode                            : Variable
Bit rate                                 : 128 Kbps
Nominal bit rate                         : 136 bps
Maximum bit rate                         : 576 Kbps
Channel(s)                               : 2 channels
Channel positions                        : Front: L R
Sampling rate                            : 48.0 KHz
Frame rate                               : 46.875 fps (1024 spf)
Compression mode                         : Lossy
Stream size                              : 2.29 MiB (0%)
Language                                 : English

Passwort: NIMA4K
Hoster: Share-online, Uploaded, Wi.to

Kommentare (0)

Bitte nutze die Kommentierfunktion ausschließlich für Releasespezifische Kommentare! Alles weitere kann gern in der Shoutbox oder im Forum diskutiert werden.

Kommentar schreiben

Du bist nicht eingeloggt! Bitte registriere Dich hier, um einen Kommentar zu schreiben. Falls Du bereits einen Account hast, kannst du dich hier einloggen.
Noch keine Kommentare vorhanden. Schreibe den ersten Kommentar!