Your first Source for 4K-Releases

Stranger.Things.S02.GERMAN.DD51.DL.2160p.WebUHD.HDR.x265-NCPX

Stranger Things (Staffel 2) (Komplett) Stranger.Things.S02.GERMAN.DD51.DL.2160p.WebUHD.HDR.x265-NCPX

Eingetragen am 31.10.2017 um 00:43 Uhr

  • Größe Pro Folge ca. 5,57 GB
  • Codec HEVC x265
  • Source WebRip
  • Sprache Deutsch Dolby Digital 5.1, English Dolby Digital 5.1
  • Auflösung 3840x2160
  • Laufzeit Pro Folge ca. 45 Min
  • Bitrate 16,90 Mb/s

Episoden einzeln ladbar

Nach dem Verschwinden eines Jungen treten in einer Kleinstadt geheime Regierungsexperimente, übernatürliche Kräfte und ein merkwürdiges kleines Mädchen zutage.

Enthaltene Episoden:

Episode 01: Kapitel eins: MAD MAX
Episode 02: Kapitel zwei: Süßes oder Saures, Freak
Episode 03: Kapitel drei: Die Kaulquappe
Episode 04: Kapitel vier: Will, der Weise
Episode 05: Kapitel fünf: Dig Dug
Episode 06: Kapitel sechs: Der Spion
Episode 07: Kapitel sieben: Die verlorene Schwester
Episode 08: Kapitel acht: Der Gedankenschinder
Episode 09: Kapitel neun: Das Tor

Trailer

Release Media Infos

General
Unique ID                                : 238539941321351070134229209164074004228 (0xB3751F20AC8E74BAAC2651D398FD2F04)
Complete name                            : Stranger.Things.S02E01.GERMAN.DD51.DL.2160p.WebUHD.HDR.x265-NCPX.mkv
Format                                   : Matroska
Format version                           : Version 4 / Version 2
File size                                : 5.57 GiB
Duration                                 : 45 min 8 s
Overall bit rate                         : 17.7 Mb/s
Encoded date                             : UTC 2017-10-27 23:23:39
Writing application                      : mkvmerge v17.0.0 ('Be Ur Friend') 64-bit
Writing library                          : libebml v1.3.5 + libmatroska v1.4.8

Video
ID                                       : 1
Format                                   : HEVC
Format/Info                              : High Efficiency Video Coding
Format profile                           : Main [email protected]@Main
Codec ID                                 : V_MPEGH/ISO/HEVC
Duration                                 : 45 min 8 s
Bit rate                                 : 16.9 Mb/s
Width                                    : 3 840 pixels
Height                                   : 2 160 pixels
Display aspect ratio                     : 16:9
Frame rate mode                          : Constant
Frame rate                               : 23.976 (24000/1001) FPS
Color space                              : YUV
Chroma subsampling                       : 4:2:0
Bit depth                                : 10 bits
Bits/(Pixel*Frame)                       : 0.085
Stream size                              : 5.32 GiB (96%)
Default                                  : Yes
Forced                                   : No
Color range                              : Limited
Color primaries                          : BT.2020
Transfer characteristics                 : PQ
Matrix coefficients                      : BT.2020 non-constant
Mastering display color primaries        : R: x=0.680000 y=0.320000, G: x=0.265000 y=0.690000, B: x=0.150000 y=0.060000, White point: x=0.312680 y=0.329000
Mastering display luminance              : min: 0.0050 cd/m2, max: 1000.0000 cd/m2
Maximum Content Light Level              : 3739 cd/m2
Maximum Frame-Average Light Level        : 835 cd/m2

Audio #1
ID                                       : 2
Format                                   : AC-3
Format/Info                              : Audio Coding 3
Format settings, Endianness              : Big
Codec ID                                 : A_AC3
Duration                                 : 45 min 8 s
Bit rate mode                            : Constant
Bit rate                                 : 384 kb/s
Channel(s)                               : 6 channels
Channel positions                        : Front: L C R, Side: L R, LFE
Sampling rate                            : 48.0 kHz
Frame rate                               : 31.250 FPS (1536 SPF)
Bit depth                                : 16 bits
Compression mode                         : Lossy
Delay relative to video                  : 4 ms
Stream size                              : 124 MiB (2%)
Service kind                             : Complete Main
Default                                  : Yes
Forced                                   : No

Audio #2
ID                                       : 3
Format                                   : AC-3
Format/Info                              : Audio Coding 3
Format settings, Endianness              : Big
Codec ID                                 : A_AC3
Duration                                 : 45 min 8 s
Bit rate mode                            : Constant
Bit rate                                 : 384 kb/s
Channel(s)                               : 6 channels
Channel positions                        : Front: L C R, Side: L R, LFE
Sampling rate                            : 48.0 kHz
Frame rate                               : 31.250 FPS (1536 SPF)
Bit depth                                : 16 bits
Compression mode                         : Lossy
Delay relative to video                  : 4 ms
Stream size                              : 124 MiB (2%)
Service kind                             : Complete Main
Default                                  : No
Forced                                   : No


Passwort: NIMA4K
Hoster: Share-Online, Rapidgator

Kommentare (0)

Bitte nutze die Kommentierfunktion ausschließlich für Releasespezifische Kommentare! Alles weitere kann gern in der Shoutbox oder im Forum diskutiert werden.

Kommentar schreiben

Du bist nicht eingeloggt! Bitte registriere Dich hier, um einen Kommentar zu schreiben. Falls Du bereits einen Account hast, kannst du dich hier einloggen.
Noch keine Kommentare vorhanden. Schreibe den ersten Kommentar!