Your first Source for 4K-Releases

Die.wahren.Memoiren.eines.internationalen.Killers.2016.AC3D.2160p.WebHD.x264-marban

Die wahren Memoiren eines internationalen Killers (2016) Die.wahren.Memoiren.eines.internationalen.Killers.2016.AC3D.2160p.WebHD.x264-marban

Eingetragen am 24.11.2016 um 21:21 Uhr

  • Größe 17,10 GB
  • Codec AVC x264
  • Source Web-DL
  • Sprache Deutsch Dolby Digital 2.0, Englisch Dolby Digital 5.1
  • Auflösung 3840x1608
  • Laufzeit 1 Stunde 38 Minuten
  • Bitrate 24,20 Mb/s

In dieser Actionkomödie spielt Kevin James die Hauptrolle des sanftmütigen Möchtegern-Autors Sam Larson, dessen fiktiver Roman über einen internationalen Auftragskiller zu seinem Unmut als wahre Geschichte veröffentlicht wird. Das Buch wird zu einem Riesenerfolg und Larson selbst wird für einen tatsächlichen Profikiller gehalten. Bevor er sich versieht, wird er entführt, außer Landes gebracht und in einen Mordkomplott verwickelt.

Trailer

Release Media Infos

General
Unique ID                                : 177427946176009117224980838066047775060 (0x857B6123B5E8D8889EE949401C957154)
Complete name                            : Die.wahren.Memoiren.eines.internationalen.Killers.2016.AC3D.2160p.WebHD.x264-marban.mkv
Format                                   : Matroska
Format version                           : Version 4 / Version 2
File size                                : 17.1 GiB
Duration                                 : 1h 38mn
Overall bit rate                         : 24.9 Mbps
Encoded date                             : UTC 2016-11-23 13:59:01
Writing application                      : mkvmerge v9.3.1 ('Mask Machine') 64bit
Writing library                          : libebml v1.3.4 + libmatroska v1.4.5

Video
ID                                       : 1
Format                                   : AVC
Format/Info                              : Advanced Video Codec
Format profile                           : [email protected]
Format settings, CABAC                   : Yes
Format settings, ReFrames                : 7 frames
Codec ID                                 : V_MPEG4/ISO/AVC
Duration                                 : 1h 38mn
Bit rate                                 : 24.2 Mbps
Width                                    : 3 840 pixels
Height                                   : 1 608 pixels
Display aspect ratio                     : 2.40:1
Frame rate mode                          : Constant
Frame rate                               : 23.976 (24000/1001) fps
Color space                              : YUV
Chroma subsampling                       : 4:2:0
Bit depth                                : 8 bits
Scan type                                : Progressive
Bits/(Pixel*Frame)                       : 0.164
Stream size                              : 16.6 GiB (97%)
Writing library                          : x264 core 144 r2525 40bb568
Encoding settings                        : cabac=1 / ref=7 / deblock=1:-3:-3 / analyse=0x3:0x133 / me=umh / subme=10 / psy=1 / psy_rd=1.00:0.00 / mixed_ref=1 / me_range=48 / chroma_me=1 / trellis=2 / 8x8dct=1 / cqm=0 / deadzone=21,11 / fast_pskip=1 / chroma_qp_offset=-2 / threads=12 / lookahead_threads=2 / sliced_threads=0 / nr=0 / decimate=1 / interlaced=0 / bluray_compat=0 / constrained_intra=0 / bframes=8 / b_pyramid=2 / b_adapt=2 / b_bias=0 / direct=3 / weightb=1 / open_gop=0 / weightp=2 / keyint=250 / keyint_min=23 / scenecut=40 / intra_refresh=0 / rc=crf / mbtree=0 / crf=20.0 / qcomp=0.60 / qpmin=0 / qpmax=69 / qpstep=4 / ip_ratio=1.30 / pb_ratio=1.20 / aq=3:0.80
Language                                 : English
Default                                  : Yes
Forced                                   : No

Audio #1
ID                                       : 2
Format                                   : AC-3
Format/Info                              : Audio Coding 3
Mode extension                           : CM (complete main)
Format settings, Endianness              : Big
Codec ID                                 : A_AC3
Duration                                 : 1h 38mn
Bit rate mode                            : Constant
Bit rate                                 : 384 Kbps
Channel(s)                               : 2 channels
Channel positions                        : Front: L R
Sampling rate                            : 48.0 KHz
Frame rate                               : 31.250 fps (1536 spf)
Compression mode                         : Lossy
Delay relative to video                  : 10ms
Stream size                              : 269 MiB (2%)
Language                                 : German
Default                                  : No
Forced                                   : No

Audio #2
ID                                       : 3
Format                                   : AC-3
Format/Info                              : Audio Coding 3
Mode extension                           : CM (complete main)
Format settings, Endianness              : Big
Codec ID                                 : A_AC3
Duration                                 : 1h 38mn
Bit rate mode                            : Constant
Bit rate                                 : 384 Kbps
Channel(s)                               : 6 channels
Channel positions                        : Front: L C R, Side: L R, LFE
Sampling rate                            : 48.0 KHz
Frame rate                               : 31.250 fps (1536 spf)
Compression mode                         : Lossy
Stream size                              : 270 MiB (2%)
Language                                 : English
Default                                  : Yes
Forced                                   : No

Text #1
ID                                       : 4
Format                                   : UTF-8
Codec ID                                 : S_TEXT/UTF8
Codec ID/Info                            : UTF-8 Plain Text
Duration                                 : 1h 30mn
Bit rate                                 : 1 bps
Count of elements                        : 33
Stream size                              : 968 Bytes (0%)
Title                                    : Forced
Language                                 : English
Default                                  : Yes
Forced                                   : No

Text #2
ID                                       : 5
Format                                   : UTF-8
Codec ID                                 : S_TEXT/UTF8
Codec ID/Info                            : UTF-8 Plain Text
Duration                                 : 1h 34mn
Bit rate                                 : 66 bps
Count of elements                        : 1393
Stream size                              : 46.1 KiB (0%)
Language                                 : English
Default                                  : No
Forced                                   : No

Text #3
ID                                       : 6
Format                                   : UTF-8
Codec ID                                 : S_TEXT/UTF8
Codec ID/Info                            : UTF-8 Plain Text
Duration                                 : 1h 37mn
Bit rate                                 : 61 bps
Count of elements                        : 1340
Stream size                              : 44.1 KiB (0%)
Language                                 : French
Default                                  : No
Forced                                   : No

Text #4
ID                                       : 7
Format                                   : UTF-8
Codec ID                                 : S_TEXT/UTF8
Codec ID/Info                            : UTF-8 Plain Text
Duration                                 : 1h 37mn
Bit rate                                 : 60 bps
Count of elements                        : 1274
Stream size                              : 43.4 KiB (0%)
Language                                 : German
Default                                  : No
Forced                                   : No

Text #5
ID                                       : 8
Format                                   : UTF-8
Codec ID                                 : S_TEXT/UTF8
Codec ID/Info                            : UTF-8 Plain Text
Duration                                 : 1h 37mn
Bit rate                                 : 60 bps
Count of elements                        : 1391
Stream size                              : 43.5 KiB (0%)
Language                                 : Italian
Default                                  : No
Forced                                   : No

Passwort: NIMA4K
Hoster: Share-Online, Rapidgator

Kommentare (1)

Bitte nutze die Kommentierfunktion ausschließlich für Releasespezifische Kommentare! Alles weitere kann gern in der Shoutbox oder im Forum diskutiert werden.

Kommentar schreiben

Du bist nicht eingeloggt! Bitte registriere Dich hier, um einen Kommentar zu schreiben. Falls Du bereits einen Account hast, kannst du dich hier einloggen.

Cook 26.12.2016 - 05:29 Uhr

Das Passwort funktioniert anscheinend nicht.