Your first Source for 4K-Releases

MySistersHotFriend - 14.10.2016 MySistersHotFriend.16.10.14.Ally.Tate.And.Jill.Kassidy.XXX.2160p.MP4-KTR

Eingetragen am 14.10.2016 um 22:43 Uhr

  • Größe 4,55 GB
  • Codec AVC x264
  • Source WEB-DL
  • Auflösung 4096x2160
  • Laufzeit 32mn 14s
  • Bitrate 20,20 Mb/s


Keine Beschreibung verfügbar

Release Media Infos

General
Complete name                            : mshf.16.10.14.ally.tate.and.jill.kassidy.4k.mp4
Format                                   : MPEG-4
Format profile                           : Base Media
Codec ID                                 : isom (isom/iso2/avc1/mp41)
File size                                : 4.55 GiB
Duration                                 : 32mn 14s
Overall bit rate mode                    : Variable
Overall bit rate                         : 20.2 Mbps
Writing application                      : Lavf57.40.101

Video
ID                                       : 1
Format                                   : AVC
Format/Info                              : Advanced Video Codec
Format profile                           : [email protected]
Format settings, CABAC                   : Yes
Format settings, ReFrames                : 3 frames
Codec ID                                 : avc1
Codec ID/Info                            : Advanced Video Coding
Duration                                 : 32mn 14s
Bit rate mode                            : Variable
Bit rate                                 : 20.0 Mbps
Maximum bit rate                         : 100.0 Mbps
Width                                    : 4 096 pixels
Height                                   : 2 160 pixels
Display aspect ratio                     : 1.896
Frame rate mode                          : Constant
Frame rate                               : 23.976 (24000/1001) fps
Standard                                 : NTSC
Color space                              : YUV
Chroma subsampling                       : 4:2:0
Bit depth                                : 8 bits
Scan type                                : Progressive
Bits/(Pixel*Frame)                       : 0.094
Stream size                              : 4.50 GiB (99%)
Color range                              : Limited
Color primaries                          : BT.709
Transfer characteristics                 : BT.709
Matrix coefficients                      : BT.709

Audio
ID                                       : 2
Format                                   : AAC
Format/Info                              : Advanced Audio Codec
Format profile                           : LC
Codec ID                                 : 40
Duration                                 : 32mn 14s
Bit rate mode                            : Constant
Bit rate                                 : 192 Kbps
Channel(s)                               : 2 channels
Channel positions                        : Front: L R
Sampling rate                            : 48.0 KHz
Frame rate                               : 46.875 fps (1024 spf)
Compression mode                         : Lossy
Stream size                              : 43.7 MiB (1%)
Default                                  : Yes
Alternate group                          : 1


Passwort: NIMA4K
Hoster: Share-online, Uploaded

Kommentare (0)

Bitte nutze die Kommentierfunktion ausschließlich für Releasespezifische Kommentare! Alles weitere kann gern in der Shoutbox diskutiert werden.

Kommentar schreiben

CAPTCHA Image
Noch keine Kommentare vorhanden. Schreibe den ersten Kommentar!