Your first Source for 4K-Releases

Anal-Beauty - 14.10.2016 Anal-Beauty.16.10.14.Nikol.XXX.2160p.MP4-KTR

Eingetragen am 14.10.2016 um 20:03 Uhr

  • Größe 4,75 GB
  • Codec AVC x264
  • Source WEB-DL
  • Auflösung 3840x2160
  • Laufzeit 41mn 9s
  • Bitrate 16,50 Mb/s


Keine Beschreibung verfügbar

Release Media Infos

General
Complete name                            : analbeauty.16.10.14.nikol.4k.mp4
Format                                   : MPEG-4
Format profile                           : Base Media
Codec ID                                 : isom (isom/iso2/avc1/mp41)
File size                                : 4.75 GiB
Duration                                 : 41mn 9s
Overall bit rate                         : 16.5 Mbps
Writing application                      : Lavf57.40.101

Video
ID                                       : 1
Format                                   : AVC
Format/Info                              : Advanced Video Codec
Format profile                           : [email protected]
Format settings, CABAC                   : Yes
Format settings, ReFrames                : 3 frames
Codec ID                                 : avc1
Codec ID/Info                            : Advanced Video Coding
Duration                                 : 41mn 9s
Bit rate                                 : 16.3 Mbps
Width                                    : 3 840 pixels
Height                                   : 2 160 pixels
Display aspect ratio                     : 16:9
Frame rate mode                          : Variable
Frame rate                               : 29.970 (30000/1001) fps
Minimum frame rate                       : 29.970 fps
Maximum frame rate                       : 30.000 fps
Standard                                 : NTSC
Color space                              : YUV
Chroma subsampling                       : 4:2:0
Bit depth                                : 8 bits
Scan type                                : Progressive
Bits/(Pixel*Frame)                       : 0.066
Stream size                              : 4.69 GiB (99%)
Color range                              : Limited
Color primaries                          : BT.709
Transfer characteristics                 : BT.709
Matrix coefficients                      : BT.709

Audio
ID                                       : 2
Format                                   : AAC
Format/Info                              : Advanced Audio Codec
Format profile                           : LC
Codec ID                                 : 40
Duration                                 : 41mn 9s
Bit rate mode                            : Constant
Bit rate                                 : 192 Kbps
Channel(s)                               : 2 channels
Channel positions                        : Front: L R
Sampling rate                            : 48.0 KHz
Frame rate                               : 46.875 fps (1024 spf)
Compression mode                         : Lossy
Stream size                              : 55.8 MiB (1%)
Default                                  : Yes
Alternate group                          : 1


Passwort: NIMA4K
Hoster: Share-online, Uploaded

Kommentare (0)

Bitte nutze die Kommentierfunktion ausschließlich für Releasespezifische Kommentare! Alles weitere kann gern in der Shoutbox diskutiert werden.

Kommentar schreiben

CAPTCHA Image
Noch keine Kommentare vorhanden. Schreibe den ersten Kommentar!