Your first Source for 4K-Releases

InTheCrack - E1211 InTheCrack.E1211.Lorena.Garcia.XXX.2160p.MP4-KTR

Eingetragen am 14.10.2016 um 19:43 Uhr

  • Größe 7,28 GB
  • Codec AVC x264
  • Source WEB-DL
  • Auflösung 3840x2160
  • Laufzeit 41mn 26s
  • Bitrate 25,10 Mb/s


Keine Beschreibung verfügbar

Release Media Infos

General
Complete name                            : itc.e1211.lorena.garcia.4k.mp4
Format                                   : MPEG-4
Format profile                           : Base Media
Codec ID                                 : isom (isom/iso2/avc1/mp41)
File size                                : 7.28 GiB
Duration                                 : 41mn 26s
Overall bit rate                         : 25.1 Mbps
Writing application                      : Lavf57.40.101

Video
ID                                       : 1
Format                                   : AVC
Format/Info                              : Advanced Video Codec
Format profile                           : [email protected]
Format settings, CABAC                   : Yes
Format settings, ReFrames                : 3 frames
Format settings, GOP                     : M=4, N=90
Codec ID                                 : avc1
Codec ID/Info                            : Advanced Video Coding
Duration                                 : 41mn 26s
Bit rate                                 : 25.0 Mbps
Width                                    : 3 840 pixels
Height                                   : 2 160 pixels
Display aspect ratio                     : 16:9
Frame rate mode                          : Variable
Frame rate                               : 29.970 (29970/1000) fps
Minimum frame rate                       : 10.804 fps
Maximum frame rate                       : 29.980 fps
Original frame rate                      : 29.970 (30000/1001) fps
Standard                                 : NTSC
Color space                              : YUV
Chroma subsampling                       : 4:2:0
Bit depth                                : 8 bits
Scan type                                : Progressive
Bits/(Pixel*Frame)                       : 0.101
Stream size                              : 7.24 GiB (99%)
Color range                              : Limited
Color primaries                          : BT.709
Transfer characteristics                 : BT.709
Matrix coefficients                      : BT.709

Audio
ID                                       : 2
Format                                   : AAC
Format/Info                              : Advanced Audio Codec
Format profile                           : LC
Codec ID                                 : 40
Duration                                 : 41mn 26s
Bit rate mode                            : Constant
Bit rate                                 : 126 Kbps
Channel(s)                               : 2 channels
Channel positions                        : Front: L R
Sampling rate                            : 44.1 KHz
Frame rate                               : 43.066 fps (1024 spf)
Compression mode                         : Lossy
Stream size                              : 37.2 MiB (0%)
Default                                  : Yes
Alternate group                          : 1


Passwort: NIMA4K
Hoster: Share-online, Uploaded

Kommentare (0)

Bitte nutze die Kommentierfunktion ausschließlich für Releasespezifische Kommentare! Alles weitere kann gern in der Shoutbox diskutiert werden.

Kommentar schreiben

Du bist nicht eingeloggt! Bitte registriere Dich hier, um einen Kommentar zu schreiben. Falls Du bereits einen Account hast, kannst du dich hier einloggen.
Noch keine Kommentare vorhanden. Schreibe den ersten Kommentar!