Your first Source for 4K-Releases

Bram.Stokers.Dracula.1992.DTS-HD.Dubbed.4k.x264.2160p.WEB-DL-marban

Bram Stoker's Dracula (1992) Bram.Stokers.Dracula.1992.DTS-HD.Dubbed.4k.x264.2160p.WEB-DL-marban

Eingetragen am 11.05.2016 um 01:02 Uhr

  • Größe 64,60 GB
  • Codec AVC x264
  • Source WEB-DL
  • Sprache Deutsch DTS 5.1, English TrueHD Atmos 7.1
  • Auflösung 3840x2076
  • Laufzeit 2 Stunden 7 Minuten
  • Bitrate 72,50 Mb/s

In den Wirren des Krieges mit den Türken verliert der rumänische Prinz Vlad Dracula seine Geliebte und verschwört sich mit den Mächten des Bösen. 400 Jahre später entdeckt der Untote beim Besuch seines Maklers Jonathan Harker ein Bild von dessen Verlobter Mina, das dem seiner Geliebten gleicht. Dracula setzt über nach London, um diese Lucy für sich zu gewinnen. Obwohl ihm die Vampirjäger unter der Führung von Professor Van Helsing auf den Fersen sind, ver- und entführt der Graf die Schöne.

Trailer

Release Media Infos

General
Unique ID                                : 200955187657685455926470827157873986971 (0x972E8FB3E978E1D2A511906656C78D9B)
Complete name                            : Bram.Stokers.Dracula.1992.DTS-HD.Dubbed.4k.x264.2160p.WEB-DL-marban.mkv
Format                                   : Matroska
Format version                           : Version 4 / Version 2
File size                                : 64.6 GiB
Duration                                 : 2h 7mn
Overall bit rate mode                    : Variable
Overall bit rate                         : 72.5 Mbps
Encoded date                             : UTC 2015-12-17 11:14:16
Writing application                      : mkvmerge v8.6.1 ('Flying') 64bit
Writing library                          : libebml v1.3.3 + libmatroska v1.4.4

Video
ID                                       : 1
Format                                   : AVC
Format/Info                              : Advanced Video Codec
Format profile                           : High [email protected]
Format settings, CABAC                   : Yes
Format settings, ReFrames                : 5 frames
Codec ID                                 : V_MPEG4/ISO/AVC
Duration                                 : 2h 7mn
Bit rate                                 : 65.2 Mbps
Width                                    : 3 840 pixels
Height                                   : 2 076 pixels
Display aspect ratio                     : 1.85:1
Frame rate mode                          : Constant
Frame rate                               : 23.976 (24000/1001) fps
Color space                              : YUV
Chroma subsampling                       : 4:2:0
Bit depth                                : 10 bits
Scan type                                : Progressive
Bits/(Pixel*Frame)                       : 0.341
Stream size                              : 58.0 GiB (90%)
Writing library                          : x264 core 146 r2538 121396c
Encoding settings                        : cabac=1 / ref=5 / deblock=1:-2:-2 / analyse=0x3:0x133 / me=umh / subme=10 / psy=1 / psy_rd=1.15:0.00 / mixed_ref=1 / me_range=48 / chroma_me=1 / trellis=2 / 8x8dct=1 / cqm=0 / deadzone=21,11 / fast_pskip=1 / chroma_qp_offset=-2 / threads=12 / lookahead_threads=2 / sliced_threads=0 / nr=0 / decimate=0 / interlaced=0 / bluray_compat=0 / constrained_intra=0 / bframes=8 / b_pyramid=2 / b_adapt=2 / b_bias=0 / direct=3 / weightb=1 / open_gop=0 / weightp=2 / keyint=240 / keyint_min=23 / scenecut=40 / intra_refresh=0 / rc_lookahead=60 / rc=crf / mbtree=1 / crf=18.0 / qcomp=0.70 / qpmin=0 / qpmax=81 / qpstep=4 / vbv_maxrate=300000 / vbv_bufsize=300000 / crf_max=0.0 / nal_hrd=none / filler=0 / ip_ratio=1.30 / aq=1:0.50
Default                                  : Yes
Forced                                   : No

Audio #1
ID                                       : 2
Format                                   : DTS
Format/Info                              : Digital Theater Systems
Format profile                           : MA / Core
Mode                                     : 16
Format settings, Endianness              : Big
Codec ID                                 : A_DTS
Duration                                 : 2h 7mn
Bit rate mode                            : Variable / Constant
Bit rate                                 : 2 343 Kbps / 1 509 Kbps
Channel(s)                               : 6 channels
Channel positions                        : Front: L C R, Side: L R, LFE
Sampling rate                            : 48.0 KHz
Frame rate                               : 93.750 fps (512 spf)
Bit depth                                : 16 bits
Compression mode                         : Lossless / Lossy
Delay relative to video                  : 7ms
Stream size                              : 2.08 GiB (3%)
Title                                    : German DTS-HD MA 5.1 | (PCM) GER BD
Language                                 : German
Default                                  : No
Forced                                   : No

Audio #2
ID                                       : 3
Format                                   : Atmos / TrueHD
Codec ID                                 : A_TRUEHD
Duration                                 : 2h 7mn
Bit rate mode                            : Variable
Bit rate                                 : 4 966 Kbps
Maximum bit rate                         : 7 752 Kbps
Channel(s)                               : Object Based / 8 channels
Channel positions                        : Object Based / Front: L C R, Side: L R, Back: L R, LFE
Sampling rate                            :  / 48.0 KHz
Frame rate                               : 1 200.000 fps (40 spf)
Compression mode                         : Lossless
Stream size                              : 4.42 GiB (7%)
Title                                    : English TrueHD Atmos 7.1  5606 kbps | US Remastered BD
Language                                 : English
Default                                  : Yes
Forced                                   : No

Text #1
ID                                       : 4
Format                                   : UTF-8
Codec ID                                 : S_TEXT/UTF8
Codec ID/Info                            : UTF-8 Plain Text
Duration                                 : 1h 58mn
Bit rate                                 : 37 bps
Count of elements                        : 741
Stream size                              : 32.3 KiB (0%)
Language                                 : German
Default                                  : Yes
Forced                                   : No

Text #2
ID                                       : 5
Format                                   : UTF-8
Codec ID                                 : S_TEXT/UTF8
Codec ID/Info                            : UTF-8 Plain Text
Duration                                 : 1h 11mn
Bit rate                                 : 1 bps
Count of elements                        : 26
Stream size                              : 831 Bytes (0%)
Title                                    : German Forced
Language                                 : German
Default                                  : No
Forced                                   : Yes

Text #3
ID                                       : 6
Format                                   : UTF-8
Codec ID                                 : S_TEXT/UTF8
Codec ID/Info                            : UTF-8 Plain Text
Duration                                 : 1h 58mn
Bit rate                                 : 41 bps
Count of elements                        : 1148
Stream size                              : 35.7 KiB (0%)
Language                                 : English
Default                                  : No
Forced                                   : No

Menu
00:00:00.000                             : en:00:00:00.000
00:05:45.178                             : en:00:05:45.178
00:12:28.373                             : en:00:12:28.373
00:23:15.185                             : en:00:23:15.185
00:35:33.214                             : en:00:35:33.214
00:37:45.263                             : en:00:37:45.263
00:43:38.241                             : en:00:43:38.241
00:48:04.757                             : en:00:48:04.757
00:54:35.856                             : en:00:54:35.856
01:08:08.876                             : en:01:08:08.876
01:12:22.797                             : en:01:12:22.797
01:17:45.369                             : en:01:17:45.369
01:23:17.993                             : en:01:23:17.993
01:35:31.392                             : en:01:35:31.392
01:48:19.868                             : en:01:48:19.868
01:55:28.630                             : en:01:55:28.630

Passwort: NIMA4K
Hoster: Share-online, Uploaded

Kommentare (2)

Bitte nutze die Kommentierfunktion ausschließlich für Releasespezifische Kommentare! Alles weitere kann gern in der Shoutbox oder im Forum diskutiert werden.

Kommentar schreiben

Du bist nicht eingeloggt! Bitte registriere Dich hier, um einen Kommentar zu schreiben. Falls Du bereits einen Account hast, kannst du dich hier einloggen.

Guest_2389 09.01.2017 - 16:50 Uhr

Lässt sich bei mir leider auch nicht abspielen keine ahnung warum `?

Klatu 02.12.2016 - 17:45 Uhr

Komisch, der einzige Film von dieser Seite, der sich per SmartView bei meinem KS8090 nicht abspielen läst.
Lösung?