Your first Source for 4K-Releases

Men.In.Black.3.2012.German.Dubbed.2160p.WEB-DL.x265-NIMA4K

Men in Black 3 (2012) Men.In.Black.3.2012.German.Dubbed.2160p.WEB-DL.x265-NIMA4K

Eingetragen am 16.10.2016 um 19:27 Uhr

  • Größe 69,40 GB
  • Codec HEVC x265
  • Source Ultra HD Blu-Ray
  • Sprache Deutsch Dolby Digital 5.1
  • Auflösung 3840x2080
  • Laufzeit 1 Stunde 45 Minuten
  • Bitrate 91,50 Mb/s

Die Vergangenheit droht Agent K einzuholen. Denn vor mittlerweile 40 Jahren hat er den gefährlichen Alien-Verbrecher Boris verhaftet, wobei dieser seinen Arm verlor. Seitdem sitzt Boris in einem geheimen Gefängnis am Mond und sinnt auf Rache. Doch mit Hilfe der hübschen Lilly gelingt Boris die Flucht und er macht sich rasch auf die Jagd nach K. Doch er will ihn nicht etwa einfach töten, sondern in die Vergangenheit reisen, K umbringen und gleichzeitig seinen Arm retten. Da K plötzlich wie vom Erdboden verschwunden ist und sich nur sein Partner Agent J an ihn erinnern kann scheint das unterfangen auch gelungen zu sein - doch J lässt das natürlich nicht auf sich sitzen, reist ebenfalls in die Vergangenheit und arbeitet mit dem jungen K zusammen um Boris aufzuhalten...

Trailer

Release Media Infos

General
Unique ID                                : 255667701953840875352613252695279538681 (0xC057CEECC90B017A89DBCD4D0A1011F9)
Complete name                            : Men.In.Black.3.2012.GERMAN.DUBBED.2160p.WEB-DL.x265-NIMA4K.mkv
Format                                   : Matroska
Format version                           : Version 4 / Version 2
File size                                : 69.4 GiB
Duration                                 : 1h 45mn
Overall bit rate                         : 93.9 Mbps
Encoded date                             : UTC 2016-02-23 21:18:38
Writing application                      : mkvmerge v7.3.0 ('Nouages') 64bit built on Oct 23 2014 13:14:01
Writing library                          : Lavf55.48.100
DURATION                                 : 01:37:05.069000000
NUMBER_OF_FRAMES                         : 1448
NUMBER_OF_BYTES                          : 47058
_STATISTICS_WRITING_APP                  : mkvmerge v7.3.0 ('Nouages') 64bit built on Oct 23 2014 13:14:01
_STATISTICS_WRITING_DATE_UTC             : 2016-02-23 21:18:38
_STATISTICS_TAGS                         : BPS DURATION NUMBER_OF_FRAMES NUMBER_OF_BYTES

Video
ID                                       : 1
Format                                   : HEVC
Format/Info                              : High Efficiency Video Coding
Codec ID                                 : V_MPEGH/ISO/HEVC
Duration                                 : 1h 45mn
Bit rate                                 : 91.5 Mbps
Width                                    : 3 840 pixels
Height                                   : 2 080 pixels
Display aspect ratio                     : 1.85:1
Frame rate mode                          : Constant
Frame rate                               : 23.976 fps
Bits/(Pixel*Frame)                       : 0.478
Stream size                              : 67.7 GiB (98%)
Writing library                          : Lavc55.69.100 ac3
Language                                 : English
Default                                  : Yes
Forced                                   : No
DURATION                                 : 01:45:48.416000000
NUMBER_OF_FRAMES                         : 198388
NUMBER_OF_BYTES                          : 355511296
_STATISTICS_WRITING_APP                  : mkvmerge v7.3.0 ('Nouages') 64bit built on Oct 23 2014 13:14:01
_STATISTICS_WRITING_DATE_UTC             : 2016-02-23 21:18:38
_STATISTICS_TAGS                         : BPS DURATION NUMBER_OF_FRAMES NUMBER_OF_BYTES

Audio
ID                                       : 2
Format                                   : AC-3
Format/Info                              : Audio Coding 3
Mode extension                           : CM (complete main)
Format settings, Endianness              : Big
Codec ID                                 : A_AC3
Duration                                 : 1h 45mn
Bit rate mode                            : Constant
Bit rate                                 : 448 Kbps
Channel(s)                               : 6 channels
Channel positions                        : Front: L C R, Side: L R, LFE
Sampling rate                            : 48.0 KHz
Bit depth                                : 16 bits
Compression mode                         : Lossy
Stream size                              : 339 MiB (0%)
Language                                 : German
Default                                  : Yes
Forced                                   : Yes

Text #1
ID                                       : 3
Format                                   : UTF-8
Codec ID                                 : S_TEXT/UTF8
Codec ID/Info                            : UTF-8 Plain Text
Language                                 : Russian
Default                                  : No
Forced                                   : No

Text #2
ID                                       : 4
Format                                   : UTF-8
Codec ID                                 : S_TEXT/UTF8
Codec ID/Info                            : UTF-8 Plain Text
Language                                 : English
Default                                  : No
Forced                                   : No

Menu
00:00:00.000                             : en:Chapter 1
00:06:09.576                             : en:Chapter 2
00:11:27.475                             : en:Chapter 3
00:16:58.807                             : en:Chapter 4
00:22:36.229                             : en:Chapter 5
00:31:24.632                             : en:Chapter 6
00:37:36.420                             : en:Chapter 7
00:42:43.018                             : en:Chapter 8
00:48:55.849                             : en:Chapter 9
00:53:58.233                             : en:Chapter 10
00:59:27.771                             : en:Chapter 11
01:05:52.782                             : en:Chapter 12
01:11:56.310                             : en:Chapter 13
01:19:50.618                             : en:Chapter 14
01:27:57.063                             : en:Chapter 15
01:35:30.680                             : en:Chapter 16

Passwort: NIMA4K
Hoster: Share-Online, Rapidgator

Kommentare (0)

Bitte nutze die Kommentierfunktion ausschließlich für Releasespezifische Kommentare! Alles weitere kann gern in der Shoutbox oder im Forum diskutiert werden.

Kommentar schreiben

Du bist nicht eingeloggt! Bitte registriere Dich hier, um einen Kommentar zu schreiben. Falls Du bereits einen Account hast, kannst du dich hier einloggen.
Noch keine Kommentare vorhanden. Schreibe den ersten Kommentar!